Licence CC BY

Créez votre propre DVD Vidéo avec DVDStyler

À la découverte de l'auteuring DVD

Publié :
Auteur :
Catégorie :
Temps de lecture estimé : 33 minutes

N'avez-vous jamais souhaité un jour pouvoir partager facilement vos vidéos et photos de vacances, de fêtes ou d'autres cérémonies avec vos proches ? De conserver un vrai souvenir de ces moments, autrement qu'avec une simple liste de fichiers multimédias dans votre ordinateur ?

Une solution possible est de créer vous-même un véritable DVD Vidéo comme ceux du commerce, avec des menus interactifs, des boutons et des chapitres, et surtout qui peut être lu aussi bien sur un ordinateur que sur un lecteur DVD de salon ! On appelle cela l'auteuring DVD (qui vient de authoring en anglais).

Ce tutoriel va ainsi vous apprendre à réaliser pas à pas votre propre DVD Vidéo avec le logiciel DVDStyler. Il s'adresse à tout le monde, et aucun prérequis n'est nécessaire. La seule chose dont vous aurez besoin, c'est votre créativité ! ;)

Vous êtes prêt ? Alors c'est parti ! :)

Avant-propos

Dans cette première partie théorique, je vais vous présenter rapidement les spécifications de l'auteuring ainsi que le logiciel que nous allons utiliser : DVDStyler.

Si cela ne vous intéresse pas et que vous souhaitez commencer la pratique tout de suite, vous pouvez vous rendre directement à la partie suivante. ;)

Le DVD Vidéo

Il existe différents formats de DVD en fonction de l'application que l'on souhaite en faire. Habituellement, lorsqu'un DVD est utilisé pour stocker les fichiers d'un ordinateur, il s'agit d'un DVD+/-R (ou d'un DVD+/-RW s'il est réinscriptible). Dans ce cas, on parle de DVD de données. Quand ce type de DVD est inséré dans un ordinateur, ce dernier va le considérer comme un support de stockage classique (au même titre qu'un disque dur ou qu'une clé USB) et va afficher le contenu du disque dans son explorateur de fichier. S'il y a des vidéos ou des photos dans la liste, c'est l'utilisateur qui devra les ouvrir une par une s'il souhaite les voir. De plus, un DVD de données risque de ne pas être correctement lu par un lecteur de salon. Et même si ça fonctionne, l'affichage se fera aussi en liste avec l'explorateur de fichiers du lecteur DVD.

Le format qui nous intéresse est le DVD Vidéo. Comme son nom l'indique, il est fait pour contenir des vidéos et du son. C'est le format utilisé pour les films achetés dans le commerce.

Logo d'un DVD Vidéo

Lorsqu'il est inséré dans un ordinateur ou dans un lecteur de salon, le contenu multimédia se lance automatiquement en plein écran, et l'utilisateur peut interagir avec les menus s'il y en a. En revanche, les fichiers sur le disque ont été convertis et ne sont pas directement visibles. Si vous essayez d'ouvrir un DVD Vidéo avec l'explorateur de fichiers de votre ordinateur, vous ne trouverez que des fichiers .VOB, .BUP et .IFO avec des noms étranges, qui ne peuvent pas être lus séparément.

Pourquoi utiliser DVDStyler ?

Les logiciels d'auteuring sont nombreux, mais la plupart sont payants et/ou propriétaires. Certains sont même inclus dans des logiciels de montage vidéo, comme c'est le cas pour Adobe Premiere.

À l'inverse, DVDStyler est entièrement gratuit et Open Source, sous licence GNU GPL. Il est également disponible sous Windows, Linux et Mac OS. De plus, c'est un logiciel très complet et simple d'utilisation.

DVDStyler est donc un logiciel qui va vous permettre de concevoir des menus entièrement personnalisables, de gérer les interactions avec les boutons, d'importer vos vidéos et vos photos, de mettre en place des chapitres, et enfin de générer et graver votre DVD Vidéo afin qu'il soit lisible aussi bien sur votre PC que sur votre lecteur de salon.

Création d'un projet

Avant de pouvoir commencer à utiliser DVDStyler, il va falloir l'installer ! ^^

Vous pouvez télécharger la dernière version du logiciel sur le site officiel (la version 2.9.4 au moment où j'écris ce tutoriel). Choisissez le fichier qui correspond à votre système d'exploitation.

Lorsque l'installation est terminée, vous pouvez lancer DVDStyler. Au démarrage, la fenêtre de création d'un nouveau projet s'ouvre automatiquement. Elle permet de choisir les options de notre nouveau projet.

Fenêtre au démarrage

Si jamais vous avez fermé trop vite cette fenêtre ou si vous voulez modifier des options plus tard, pas de panique ! Elle se trouve dans le menu DVD > Options…

C'est donc ici que nous allons indiquer la configuration de base de notre projet. Indiquez le nom que vous voulez donner à votre DVD, ainsi que sa capacité. Si vous souhaitez utiliser un disque simple couche, laissez 4,7 Go. Si en revanche vous avez beaucoup de vidéos et que vous avez sous la main un disque double couche, choisissez 8,5 Go. Vous remarquerez que vous pouvez aussi vous servir d'un CD si vous n'avez pas de DVD. Enfin, la capacité Illimitée est très utile si vous ne comptez pas graver votre projet sur un disque physique. En effet, DVDStyler permet aussi de créer des DVD virtuels. Nous y reviendrons à la fin de ce tutoriel.

Attention ! Sur un DVD de données, vous avez peut-être l'habitude de calculer l'espace disponible pour vos fichiers en regardant leur taille en Go. Avec un DVD Vidéo, ça ne fonctionne pas comme ça puisque les fichiers sont convertis et ré-encodés. Du coup, c'est la durée totale qui compte ! En bonne qualité, pour un disque simple couche, vous pouvez placer environ 2 heures de vidéos. Avec un double couche, c'est environ 4 heures.

Je vous conseille de laisser ensuite le bitrate vidéo et le débit audio aux valeurs pas défaut, sauf si vous savez ce que vous faites.

Le réglage Post-commande par défaut du titre permet simplement de choisir le comportement du DVD à la fin d'une vidéo. Vous pouvez revenir où vous étiez (donc si la vidéo a été lancée depuis un sous-menu, c'est ce dernier qui revient à l'écran), ou alors retourner au menu principal (quel que soit le sous-menu de départ), ou encore lire automatiquement la vidéo suivante.

Enfin viennent les réglages de l'encodage des fichiers. NTSC est le standard vidéo en Amérique du Nord, et PAL est celui de plus ou moins le reste du monde. Donc si vous n'habitez pas en Amérique, choisissez PAL. Ainsi votre télévision et votre lecteur DVD de salon seront parfaitement compatibles. Pour les proportions, tout dépend de vos vidéos mais aujourd'hui quasiment tous les écrans et les caméras sont en 16:9. Si vous restez en 4:3 vous aurez des bandes noires sur les côtés de votre téléviseur. Enfin, pour l'audio, je vous conseille de choisir le format AC3 qui est utilisé par le son Dolby Digital dans les DVD du commerce.

Quand tous les choix sont faits, cliquez sur OK. Une nouvelle fenêtre s'ouvre pour vous laisser choisir l'apparence du menu principal de votre DVD. Plusieurs catégories et différents thèmes vous sont proposés. Si l'un d'entre eux vous plait, choisissez-le. Sinon, pour vraiment personnaliser votre menu, cliquez sur Non Modèle.

Divers modèles et thèmes

Vous voilà enfin devant l'interface du logiciel. Elle se compose des menus et actions rapides en haut, des arrière-plans et des boutons dans les onglets à gauche, de l'aperçu au centre et de la liste des menus et des fichiers multimédias en bas.

Interface de DVDStyler

Vous pouvez commercer à être créatif ! :)

Un beau menu principal

Si vous n'avez pas choisi de thème prédéfini, vous avez devant les yeux un grand rectangle noir. C'est votre menu principal, qu'il va falloir habiller !

Sur la partie du bas, tous les menus et les fichiers multimédias vont s'afficher au fur et à mesure qu'ils seront ajoutés au projet. Vous pouvez remarquer que pour le moment, seul le menu 1 apparait. Juste au-dessus de lui, on peut lire les lettres VMGM. Cela signifie "Video Manager Menu", c'est-à-dire qu'il s'agit bien du menu principal (le plus haut dans la hiérarchie) et que c'est avec lui que commencera la lecture du DVD.

Vous pouvez dès à présent ajouter toutes vos vidéos au projet en allant dans le menu DVD > Ajouter > Fichier… et elles s'affichent en bas à côté du menu 1. Vous avez également la possibilité de cliquer, juste sous la barre des menus, sur l'icône de la pellicule avec un signe plus vert. DVDStyler prend en charge de nombreux formats de vidéos.

L'image de fond

DVDStyler permet de placer une vidéo en fond du menu. Il peut aussi mettre une image fixe, et vous pouvez dans ce cas ajouter de la musique ! ;)

Faites un clic droit sur le rectangle noir et choisissez Propriétés.

Propriétés du menu principal

L'image de fond s'applique avec l'option Background. Cliquez sur les points de suspension et allez chercher votre image ou votre vidéo. Utilisez-en une de préférence au format 16:9 pour qu'elle recouvre tout l'écran. Si ce n'est pas le cas, allez modifier les options juste en dessous pour qu'elle ne soit pas déformée à l'affichage. Lorsque vous choisissez de conserver les proportions, à vous de décider si des bandes noires apparaissent ou si l'image est tronquée pour remplir tout l'écran. Vous devez aussi indiquer la position de l'image à l'écran (par défaut au centre).

Si vous préférez un fond uni, ne mettez rien dans le champ Background mais choisissez juste en dessous la couleur que vous souhaitez.

Pour une piste audio jouée durant l'affichage du menu, remplissez le champ Audio. Vous pouvez même choisir une piste qui remplacera l'audio de la vidéo de fond.

Le réglage Pause permet de définir la durée d'attente entre la fin du menu et la lecture du fichier suivant. Par défaut elle est nulle (ou à -1). Pour que le menu tourne en boucle en attendant le choix de l'utilisateur, cochez la case Loop. Sinon, vous pouvez indiquer l'action qui se produira automatiquement à la fin dans le champ Commandes postérieures.

Si vous voulez que quelque chose s'affiche à l'écran avant le menu principal et n'apparaissent plus ensuite (comme pour les publicités sur un DVD du commerce), indiquez-le dans le champ Commandes antérieures.

Enfin, l'option Enregistrer le dernier bouton sélectionné permet de laisser en surbrillance le bouton choisi lors du précédent appel du menu.

Appliquez les modifications en cliquant sur OK et admirez le résultat !

Enregistrez toujours très régulièrement votre projet ! Le logiciel est susceptible de planter à tout moment de façon soudaine et impromptue, surtout si vous travaillez avec un projet important qui contient beaucoup de fichiers et de menus.1

Textes, images et dessins

Maintenant que votre fond est prêt, il est temps d'ajouter des éléments par-dessus. Et là vous avez l'embarras du choix ! ^^

Tout ce qui peut être ajouté se trouve en faisant un clic droit sur l'aperçu du menu, et en choisissant Ajouter. Vous pouvez ainsi placer des ellipses, des rectangles, des cadres, des images, du texte avec ou sans ombre…

Pour chaque élément, la personnalisation est illimitée : en faisant un clic droit sur chacun d'eux et en choisissant Propriétés, vous allez choisir leur couleur de fond et de contour, leur ombre, leur position, leur taille, leur angle de rotation, leur transparence, leur police d'écriture et beaucoup d'autres choses que je vous laisse découvrir par vous-même. C'est le moment de réaliser tout ce que vous voulez ! :magicien:

Propriétés d'un élément : du texte

Vous pouvez également décider quel élément va passer au dessus ou en dessous d'un autre en faisant un clic droit sur l'un d'entre eux et en utilisant la commande Arranger pour avancer ou reculer d'un plan.

En sélectionnant un ou plusieurs éléments, la commande Aligner (toujours accessible avec le clic droit) permet de centrer horizontalement et/ou verticalement, ou encore de placer les objets à la même hauteur.

Enfin, il existe une option très utile pour positionner précisément les objets. Faites un clic droit dans une zone sans élément, puis sélectionnez Grille > Afficher. Les éléments ne pourront se placer que sur les points de cette grille. Pour une précision maximale, choisissez la taille 4x4. En cliquant sur Aucun, vous aurez une liberté totale de placement.

Éloignez-vous des bords !

Lisez bien cette partie, c'est important !

Avez-vous remarqué le cadre légèrement plus clair autour de l'aperçu du menu ? DVDStyler l'appelle la zone TV sûre. Vous pouvez la laisser affichée ou la masquer (mais je ne vous le conseille pas) en faisant un clic droit et en choisissant Voir.

Alors qu'est-ce que c'est ? Vous ne le savez peut-être pas, mais l'écran d'un ordinateur et d'une télévision n'est pas tout à fait le même lors de l'affichage d'une image. À l'époque des télévisions à tube cathodique, les écrans n'affichaient pas tous les images à la même taille et elles n'étaient pas toujours bien centrées. Dans ce cas des bandes noires pouvaient apparaitre. Du coup, les fabricants ont décidé de faire légèrement déborder les images en zoomant et en coupant les bords afin de ne jamais voir de noir autour. Mais certaines télévisions actuelles possèdent toujours ce réglage aujourd'hui inutile, appelé overscan.

Les écrans d'ordinateur n'ont jamais eu ce réglage et affichent les images en entier, donc si vous lisez votre DVD Vidéo sur PC vous aurez tous les bords. En revanche, avec des boutons ou du texte dans cette zone plus claire, vous prenez le risque de les voir tronqués ou même complètement en dehors du cadre en lisant le DVD avec votre lecteur de salon et votre télévision.2 Alors au cas où, pensez à laisser les bords vides !

Exemple

Je vous présente ci-dessous un exemple de menu très basique, et je suis certain que vous serez capable de faire quelque chose de bien plus joli que ça. ;)

Un exemple de menu principal

Comme vous pouvez le constater, j'ai modifié la couleur du fond, et j'ai ajouté du texte (avec choix de police et de couleur) et une image. Je suis également bien resté à l'intérieur de la zone TV sûre pour éviter les mauvaises surprises !

Vous ne pouvez pas le voir sur cette capture d'écran, mais j'ai aussi mis une musique de fond qui se joue en boucle tant que l'utilisateur n'a pas fait son choix.

Les sous-menus

Si vous souhaitez ajouter d'autres menus à votre projet, faites un clic droit sur la partie du bas, là où sont recensés le menu principal et les fichiers ajoutés. Choisissez alors Ajouter > Menu et personnalisez-le en suivant exactement les mêmes étapes que pour le menu principal.

Vérifiez bien que vous ajoutez un Menu et pas un VMGM Menu !

Vous pouvez créer autant de sous-menus que nécessaire. Les différents niveaux hiérarchiques seront alors gérés par les boutons.


  1. Histoire vécue… mais heureusement j'enregistrais après chaque modification donc je n'ai presque rien perdu. 

  2. Histoire vécue aussi. Plus d'informations sur l'overscan avec Wikipedia et cet article (en anglais). 

Boutons et actions

Votre menu principal est réalisé ? Alors il est temps de pouvoir naviguer dans les différentes parties de votre DVD Vidéo ! On utilise pour cela des boutons ou des vignettes, qui se comportent comme des liens sur Internet : l'utilisateur peut les sélectionner (avec une souris et un clavier ou avec une télécommande) pour exécuter une action.

Les boutons et les vignettes peuvent être des liens vers un autre menu ou directement vers du contenu multimédia qui sera lu. Dans un sous-menu, pensez donc à toujours laisser la possibilité de revenir au menu principal avec un bouton Retour.

Les boutons

DVDStyler vous permet de choisir entre un dessin et une image personnelle qui servirait de bouton. Vous devez choisir un des nombreux modèles proposés, qui se trouvent à gauche de l'interface, en cliquant sur l'onglet Boutons, en dessous de l'onglet Arrière-plans.

En fonctions de vos besoins, différents types de boutons sont disponibles :

  • Du texte : Contrairement au texte statique que vous avez peut-être ajouté à votre menu principal, ce sont bien là des boutons qui peuvent être sélectionnés. Ils peuvent servir à lister les vidéos présentes sur le DVD.

  • Des flèches : Pour indiquer le passage d'un menu à un autre par exemple.

  • Des maisons : En général, pour revenir au menu principal.

  • Des coches et des croix : À vous de déterminer si elles peuvent vous être utiles. ^^

  • Des vignettes : Ce sont les cadres blancs de formes variées. Nous en parlerons plus en détail dans la partie suivante.

Pour placer un bouton dans votre menu, c'est très simple : il vous suffit de le tirer vers la zone de dessin en maintenant le clic gauche de la souris enfoncé. Il se positionne ensuite là où vous le relâchez.

Comme pour les éléments non sélectionnables, vous avez toujours une personnalisation illimitée de l'aspect visuel de vos boutons. Pour chaque modèle, vous avez le choix de la couleur, de la taille, de l'ombre, de l'orientation, de la police d'écriture…

Pour chaque bouton, vous devez choisir 3 couleurs (ou les laisser par défaut) qui correspondent aux 3 états dans lequel il peut se trouver :

  • Normal : C'est la couleur qu'il possède par défaut, tant que l'utilisateur ne le choisit pas.

  • Surligné : C'est la couleur qu'il prend lorsqu'il est en surbrillance, c'est-à-dire lorsque la souris ou la télécommande sont posées dessus, mais que l'utilisateur n'a pas encore cliqué dessus.

  • Sélectionné : C'est la couleur qu'il prend au moment où l'utilisateur clique dessus et lance l’action qui lui correspond.

Les vignettes

Les vignettes sont des images sélectionnables qui permettent d'afficher un petit aperçu du contenu qui sera lu. Elles sont dans la liste des boutons sous la forme de cadres blancs. Vous avez le choix entre des rectangles et des ellipses, inclinés ou non. Lorsque vous ajoutez un de ces cadres à votre menu, il se remplit automatiquement avec une image extraite de la vidéo vers laquelle il redirige.

Dans les propriétés de la vignette, vous avez deux possibilités. Vous pouvez choisir une image personnelle, indépendante de la vidéo qui va se lancer, ou alors souhaitez montrer une miniature extraite de la vidéo. Dans ce cas, cliquez sur les points de suspension devant le paramètre Vidéo, et indiquez précisément le moment où l'image souhaitée apparait. Vous pouvez même spécifier une durée durant laquelle la miniature va lire un extrait de la vidéo.

En conclusion, le bouton est plus descriptif tandis que la vignette est plus visuelle. Cette dernière est particulièrement adaptée pour une liste de chapitres d'un film par exemple, où chaque miniature montrerait facilement l'avancée de la vidéo.

Différence entre bouton et vignette

Les actions

Une fois que l'aspect du bouton ou de la vignette est défini, il reste à paramétrer la partie la plus importante : les actions à réaliser. Ces dernières se trouvent dans la fenêtre Propriétés du bouton sélectionné.

Propriétés d'un bouton

Vous devez ainsi indiquer où le bouton doit amener l'utilisateur s'il le choisit, avec le réglage Aller à. Vous avez donc la possibilité de choisir entre la lecture d'un fichier multimédia ou l'affichage d'un autre menu. Pour les vidéos, vous pouvez directement vous rendre à un chapitre précis, ou encore lire tous les titres les uns après les autres sans revenir au menu entre chaque, en cochant la case du même nom.

Comme indiqué déjà précédemment, pensez à toujours mettre en place une échappatoire dans les sous-menus pour retourner facilement au menu principal ! ;)

L'ordre de sélection

Si le DVD est lu sur un ordinateur, il est très simple de choisir le bouton que l'on souhaite : il suffit de pointer le curseur de la souris dessus et de cliquer. Mais avec la télécommande d'un lecteur de salon, l'utilisateur ne dispose que des quatre flèches directionnelles pour se déplacer dans les menus.

Lorsque deux boutons sont côte à côte et que celui de gauche est en surbrillance, un appui sur la flèche de droite va en toute logique déplacer la surbrillance sur le bouton de droite (DVDStyler règle ce comportement par défaut). Mais certains cas nécessitent de mettre en place manuellement un ordre de sélection en fonction des appuis sur la télécommande.

Par exemple, arrivé en bas d'une liste verticale d'éléments, l'utilisateur aimerait peut-être bien pouvoir retourner au premier élément avec un simple appui vers le bas, plutôt que de tout remonter avec des appuis successifs vers le haut. Ou alors, que faire si les boutons sont répartis un peu partout sur l'écran, sans aucun alignement ?

Toujours dans la fenêtre Propriétés, vous pouvez voir le réglage Navigation. C'est ici que vous indiquez le numéro du prochain bouton à sélectionner lors de l'appui sur une des quatre flèches de la télécommande (ou des touches d'un clavier si la souris n'est pas utilisée). Le numéro de chaque bouton se trouve dans le titre de la fenêtre des propriétés, ou s'affiche en bas à gauche lors du survol de la souris.

Dernière étape : pour le bouton que vous souhaitez voir sélectionné par défaut lors de l'affichage du menu (en général le premier élément d'une liste), faites un clic droit dessus et cliquez sur Premier bouton en surbrillance.

Exemple

Reprenons l'exemple précédent. Voici le sous-menu qui apparait quand l'utilisateur choisit les documentaires :

Un exemple de sous-menu

Il contient du texte, une image et quatre boutons. Chaque flèche a comme action le lancement de la vidéo correspondante, et la maison retourne au menu principal.

L’utilisateur peut se déplacer dans la liste en utilisant au choix les touches haut et bas ou gauche et droite de sa télécommande. Le premier bouton en surbrillance est la flèche en tête de liste.

Réglages multimédias

Toute votre interface est terminée ? Bravo ! :) Il ne reste plus qu'à s'occuper des fichiers en eux-mêmes.

Vidéos

Tous les réglages se trouvent en faisant un clic droit sur une vidéo dans la zone du bas et en choisissant Propriétés.

En cliquant sur la petite clé à molette sur le côté droit de la fenêtre qui vient d'apparaitre, vous pouvez modifier les paramètres de la vidéo.

Réglages de la vidéo

Laissez le format de sortie PAL, et la résolution dépend de celle de votre vidéo d'origine. Je vous conseille également de choisir le progressif pour un meilleur affichage. Vous avez également la possibilité d'appliquer des bordures noires sur les côtés. Enfin, le début et la fin de la vidéo peuvent être coupés à une durée précise. Tous les changements sont visibles dans l'aperçu à droite, agrandissez la fenêtre si des éléments dépassent du cadre.

Pour les paramètres de l'audio, laissez AC3. La langue indiquée permet, selon les paramètres de votre lecteur, de choisir celle par défaut dans le cas où il y en aurait plusieurs.

En dessous, les chapitres permettent de se rendre directement à un endroit précis de la vidéo. Par défaut, ils sont créés toutes les 10 minutes, au risque de tomber en plein milieu d'une phrase par exemple. Vous pouvez les gérer précisément en cliquant sur les points de suspension à droite du champ de texte.

Ajout des chapitres

Enfin, les Commandes antérieures et les Commandes postérieures sont les actions qui seront effectuées avant ou après la lecture de la vidéo : affichage d'un menu (un en particulier ou le dernier à l'écran) ou lecture d'une autre vidéo.

Diaporama de photos

Les réglages se trouvent de la même façon qu'avec les vidéos : un clic droit sur les photos puis Propriétés.

Vous choisissez le format, la durée d'affichage de chaque image, le type de transition entre deux images, et également la piste audio qui sera jouée durant le diaporama si vous en voulez une.

Réglages des photos

Pour mettre en place des transitions différentes pour chaque image, sélectionnez chacune d'entre elles et cliquez sur la clé à molette à droite.

Petite astuce : Vous pouvez constater qu'avec un diaporama de photos, vous êtes obligé de spécifier une durée d'affichage. Ce n'est donc pas possible de faire défiler manuellement les photos quand on le souhaite.

Pour contourner le problème, vous devez créer des sous-menus avec en image de fond chacune de vos photos. Ainsi, c'est seulement lors de l'appui sur un bouton Suivant que vous changez d'image.

Gravure du DVD

Lorsque votre projet est complet, voici enfin la dernière étape : la gravure ! :pirate:

Pour cela, sélectionnez Fichier > Graver DVD dans le menu du haut, ou cliquez sur l'icône de DVD enflammé.

Une nouvelle fenêtre s'ouvre, et vous permet de choisir ce que vous voulez faire. Vous avez ainsi trois possibilités :

  • Générer les fichiers du DVD Vidéo sans les graver, pour une utilisation ultérieure.

  • Créer un DVD virtuel au format ISO. Cela est très utile si vous avez trop de fichiers multimédias pour les graver sur un vrai DVD, ou si vous souhaitez simplement partager votre création sans support physique. Le DVD pourra alors être lu en utilisant un logiciel de montage d'images disques sur votre ordinateur. Il en existe beaucoup, et certains sont gratuits.

  • Graver physiquement le DVD Vidéo sur un DVD vierge à insérer dans votre ordinateur.

Cliquez ensuite sur Démarrer.

Le processus commence et peut durer plusieurs minutes selon la complexité et la taille de votre projet. Toutes les informations s'affichent en temps réel et vous informent sur les différentes actions effectuées (génération des menus, transcodage et remultiplexage, gravure…)

Lorsque tout est terminé, vous pouvez fermer la fenêtre et admirer le résultat de votre travail !

Résultat dans l'explorateur de fichiers


Voilà, ce tutoriel est terminé. J’espère que vous n’avez pas rencontré de difficulté particulière et que vous êtes maintenant prêt à créer un DVD Vidéo dont vous serez fier ! ^^

Si vous avez des questions, des remarques, des suggestions ou des problèmes, n’hésitez pas à en parler dans les commentaires ou les forums. :)

11 commentaires

J ai bien gravé mon DVD qui fonctionne correctement sur mon ordi (tour).Mais aucune part ailleurs .portables ,lecteur de salon ???on me dit qu il faut finaliser la gravure …mais on ne peut pas le faire avec DVDStyler . pouvez vous régler mon problème . En vous remerciant

+0 -0

Bonjour,

C’est étrange, normalement la gravure est correctement finalisée par DVDStyler. Quel est votre système d’exploitation ?

Une solution de contournement, c’est de générer le fichier ISO avec DVDStyler, puis de graver séparément cet ISO sur un disque. Mais normalement il n’y a pas besoin de faire comme ça.

“I don’t love studying. I hate studying. I like learning. Learning is beautiful.” – Natalie Portman

+0 -0

Bonjour, j’ai essayer de faire mon propre DVD mais il y a un problème au moment de la gravure. la gravure se passe très bien jusqu’à ce que au bout d’un moment (à peut prés les 3/4) il y ai "Echec" écrit en rouge et donc la gravure ne se poursuit pas. :'(

Voici les détails donné :

DVDStyler v3.1 Windows 10 (version 18362), édition 64-bit FFmpeg: libavformat 58.20.100, libavcodec 58.35.100, libavutil 56.22.100 Préparation Nettoyage du dossier temporaire

Recherche dans le cache des fichiers transcodés

        | Input size | Output duration | Bitrate  | Estimated output size

VMGM menu 1 | | | 8.0 Mb/s | 0.1 MB Menu 1 | | | 8.0 Mb/s | 0.1 MB Menu 2 | | | 8.0 Mb/s | 0.1 MB Title 1 mp4 | 5.4 MB | 3:14.793 sec | 8.0 Mb/s | 194.8 MB Title 2 mp4 | 4.3 MB | 2:37.014 sec | 8.0 Mb/s | 157.0 MB Title 3 mp4 | 29.8 MB | 1:00.303 sec | 8.0 Mb/s | 60.3 MB Title 4 mp4 | 76.4 MB | 3:14.212 sec | 8.0 Mb/s | 194.2 MB Title 5 mp4 | 10.3 MB | 1:12.307 sec | 8.0 Mb/s | 72.3 MB Title 6 mp4 | 4.1 MB | 2:24.847 sec | 8.0 Mb/s | 144.8 MB

Total | | 13:43.476 sec | | 823.8 MB

Génération du menu 1 sur 3 Création du menu MPEG Nombre d’images du menu : 15 Multiplexage des boutons sous-images en MPEG Executing command: spumux -P -s 0 "D:\dvd-tmp\menu0–0.mpgspumux.xml" DVDAuthor::spumux, version 0.7.1. Build options: gnugetopt iconv freetype fribidi fontconfig Send bug reports to dvdauthor-users@lists.sourceforge.net INFO: no default video format, must explicitly specify NTSC or PAL INFO: PNG had 1 colors INFO: PNG had 4 colors INFO: PNG had 4 colors INFO: Pickbuttongroups, success with 1 groups, useimg=1 INFO: 0 bytes of data written INFO: 30720 bytes of data written INFO: 61440 bytes of data written INFO: 90112 bytes of data written INFO: 120832 bytes of data written INFO: Found EOF in .sub file. INFO: Max_sub_size=50 INFO: 151552 bytes of data written INFO: 1 subtitles added, 0 subtitles skipped, stream: 32, offset: 0.53 Génération du menu 2 sur 3 Création du menu MPEG Nombre d’images du menu : 15 Multiplexage des boutons sous-images en MPEG Executing command: spumux -P -s 0 "D:\dvd-tmp\menu1–0.mpg_spumux.xml" DVDAuthor::spumux, version 0.7.1. Build options: gnugetopt iconv freetype fribidi fontconfig Send bug reports to dvdauthor-users@lists.sourceforge.net INFO: no default video format, must explicitly specify NTSC or PAL INFO: PNG had 1 colors INFO: PNG had 4 colors INFO: PNG had 4 colors INFO: Pickbuttongroups, success with 1 groups, useimg=1 INFO: 0 bytes of data written INFO: 24576 bytes of data written INFO: 49152 bytes of data written INFO: 71680 bytes of data written INFO: 96256 bytes of data written INFO: Found EOF in .sub file. INFO: Max_sub_size=274 INFO: 120832 bytes of data written INFO: 1 subtitles added, 0 subtitles skipped, stream: 32, offset: 0.53 Génération du menu 3 sur 3 Création du menu MPEG Nombre d’images du menu : 15 Multiplexage des boutons sous-images en MPEG Executing command: spumux -P -s 0 "D:\dvd-tmp\menu1–1.mpg_spumux.xml" DVDAuthor::spumux, version 0.7.1. Build options: gnugetopt iconv freetype fribidi fontconfig Send bug reports to dvdauthor-users@lists.sourceforge.net INFO: no default video format, must explicitly specify NTSC or PAL INFO: PNG had 1 colors INFO: PNG had 7 colors INFO: PNG had 7 colors INFO: Pickbuttongroups, success with 2 groups, useimg=1 INFO: 0 bytes of data written INFO: 24576 bytes of data written INFO: 47104 bytes of data written INFO: 71680 bytes of data written INFO: 94208 bytes of data written INFO: Found EOF in .sub file. INFO: Max_sub_size=738 INFO: 118784 bytes of data written INFO: 1 subtitles added, 0 subtitles skipped, stream: 32, offset: 0.53 Transcode video 1 of 6 Add file to cache:D:\dvd-cache\entry001.vob Transcodage du fichier vidéo : C:\Users\Corentin\Downloads\Anthony_Kavanagh-_Nuits_dArabie_2019_De_AladdinAudio_Only.mp4 Need encode: true, use mplex: false

Executing command: ffmpeg-vbr.bat -fflags +genpts -threads 8 -i "C:\Users\Corentin\Downloads\AnthonyKavanagh-_Nuits_dArabie_2019_De_AladdinAudio_Only.mp4" -f dvd -c:v:0 mpeg2video -aspect 16:9 -s 720x480 -r 24000/1001 -g 18 -pix_fmt yuv420p -b:v:0 8000000 -maxrate:v:0 8000000 -minrate:v:0 8000000 -bufsize:v:0 1835008 -packetsize 2048 -muxrate 10080000 -b:a 192000 -ar 48000 -c:a:0 ac3 -map 0:V -map 0:a -map -0:s "D:\dvd-cache\entry001.vob"

FFMpeg-VBR Plugin Settings:

VBR Threshold: 7000 kbps 2-Pass Threshold: 4500 kbps HQ Threshold: 4500 kbps Extreme HQ Threshold: 0 kbps Medium Bitrate Threshold: 7000 kbps

Low Bitrate Threshold: 3500 kbps

<24/03/2020 15:24:20,26> File Name: C:\Users\Corentin\Downloads\AnthonyKavanagh-_Nuits_dArabie_2019_De_AladdinAudio_Only.mp4 Encoding Mode: CBR HQ: NO Custom Quant Matrix: Fox New

Executing command generated by the ffmpeg-VBR plugin: ffmpeg.exe -fflags +genpts -threads 8 -i "C:\Users\Corentin\Downloads\AnthonyKavanagh-_Nuits_dArabie_2019_De_AladdinAudio_Only.mp4" -f dvd -c:v:0 mpeg2video -dc 10 -intra_matrix "8,8,9,9,10,10,11,11,8,9,9,10,10,11,11,12,9,9,10,10,11,11,12,12,9,10,10,11,11,12,13,13,10,10,11,11,12,13,13,14,10,11,11,12,13,13,14,15,11,11,12,13,13,14,15,15,11,12,12,13,14,15,15,16" -inter_matrix "8,8,9,9,10,10,11,11,8,9,9,10,10,11,11,12,9,9,10,10,11,11,12,12,9,10,10,11,11,12,13,13,10,10,11,11,12,13,13,14,10,11,11,12,13,13,14,15,11,11,12,13,13,14,15,15,11,12,12,13,14,15,15,16" -aspect 16:9 -s 720x480 -r 24000/1001 -g 18 -pix_fmt yuv420p -b:v:0 8000000 -maxrate:v:0 8000000 -minrate:v:0 8000000 -bufsize:v:0 1835008 -packetsize 2048 -muxrate 10080000 -b:a 192000 -ar 48000 -c:a:0 ac3 -map 0:V -map 0:a -map -0:s "D:\dvd-cache\entry001.vob"

ffmpeg version 4.1.1 Copyright © 2000–2019 the FFmpeg developers built with gcc 8.2.1 (GCC) 20190212 libavutil 56. 22.100 / 56. 22.100 libavcodec 58. 35.100 / 58. 35.100 libavformat 58. 20.100 / 58. 20.100 libavdevice 58. 5.100 / 58. 5.100 libavfilter 7. 40.101 / 7. 40.101 libswscale 5. 3.100 / 5. 3.100 libswresample 3. 3.100 / 3. 3.100 libpostproc 55. 3.100 / 55. 3.100 Input #0, mov,mp4,m4a,3gp,3g2,mj2, from 'C:\Users\Corentin\Downloads\AnthonyKavanagh-_Nuits_dArabie_2019_De_AladdinAudio_Only.mp4’: Metadata: major_brand : isom minor_version : 512 compatible_brands: isomiso2avc1mp41 encoder : Lavf58.20.100 Duration: 00:03:14.79, start: 0.000000, bitrate: 231 kb/s Stream #0:0(und): Video: h264 (Main) (avc1 / 0x31637661), yuv420p(tv, bt709), 1280x720 [SAR 1:1 DAR 16:9], 98 kb/s, 23.98 fps, 23.98 tbr, 24k tbn, 47.95 tbc (default) Metadata: handler_name : ISO Media file produced by Google Inc. Stream #0:1(eng): Audio: aac (LC) (mp4a / 0x6134706D), 44100 Hz, stereo, fltp, 127 kb/s (default) Metadata: handler_name : ISO Media file produced by Google Inc. Stream mapping: Stream #0:0 -> #0:0 (h264 (native) -> mpeg2video (native)) Stream #0:1 -> #0:1 (aac (native) -> ac3 (native)) Press [q] to stop, [?] for help Output #0, dvd, to 'D:\dvd-cache\entry001.vob’: Metadata: major_brand : isom minor_version : 512 compatible_brands: isomiso2avc1mp41 encoder : Lavf58.20.100 Stream #0:0(und): Video: mpeg2video (Main), yuv420p, 720x480 [SAR 32:27 DAR 16:9], q=2–31, 8000 kb/s, 23.98 fps, 90k tbn, 23.98 tbc (default) Metadata: handler_name : ISO Media file produced by Google Inc. encoder : Lavc58.35.100 mpeg2video Side data: cpb: bitrate max/min/avg: 8000000/8000000/8000000 buffer size: 1835008 vbv_delay: -1 Stream #0:1(eng): Audio: ac3, 48000 Hz, stereo, fltp, 192 kb/s (default) Metadata: handler_name : ISO Media file produced by Google Inc. encoder : Lavc58.35.100 ac3 frame= 4669 fps= 61 q=2.0 Lsize= 198088kB time=00:03:14.81 bitrate=8329.8kbits/s speed=2.53x
video:190116kB audio:4566kB subtitle:0kB other streams:0kB global headers:0kB muxing overhead: 1.749677%

Transcode video 2 of 6 Add file to cache:D:\dvd-cache\entry002.vob Transcodage du fichier vidéo : C:\Users\Corentin\Downloads\AnthonyKavanagh-_Je_suis_ton_meilleur_ami_De_AladdinAudio_Only.mp4 Need encode: true, use mplex: false

Executing command: ffmpeg-vbr.bat -fflags +genpts -threads 8 -i "C:\Users\Corentin\Downloads\AnthonyKavanagh-_Je_suis_ton_meilleur_ami_De_AladdinAudio_Only.mp4" -f dvd -c:v:0 mpeg2video -aspect 16:9 -s 720x480 -r 24000/1001 -g 18 -pix_fmt yuv420p -b:v:0 8000000 -maxrate:v:0 8000000 -minrate:v:0 8000000 -bufsize:v:0 1835008 -packetsize 2048 -muxrate 10080000 -b:a 192000 -ar 48000 -c:a:0 ac3 -map 0:V -map 0:a -map -0:s "D:\dvd-cache\entry002.vob"

FFMpeg-VBR Plugin Settings:

VBR Threshold: 7000 kbps 2-Pass Threshold: 4500 kbps HQ Threshold: 4500 kbps Extreme HQ Threshold: 0 kbps Medium Bitrate Threshold: 7000 kbps

Low Bitrate Threshold: 3500 kbps

<24/03/2020 15:25:39,60> File Name: C:\Users\Corentin\Downloads\AnthonyKavanagh-_Je_suis_ton_meilleur_ami_De_AladdinAudio_Only.mp4 Encoding Mode: CBR HQ: NO Custom Quant Matrix: Fox New

Executing command generated by the ffmpeg-VBR plugin: ffmpeg.exe -fflags +genpts -threads 8 -i "C:\Users\Corentin\Downloads\AnthonyKavanagh-_Je_suis_ton_meilleur_ami_De_AladdinAudio_Only.mp4" -f dvd -c:v:0 mpeg2video -dc 10 -intra_matrix "8,8,9,9,10,10,11,11,8,9,9,10,10,11,11,12,9,9,10,10,11,11,12,12,9,10,10,11,11,12,13,13,10,10,11,11,12,13,13,14,10,11,11,12,13,13,14,15,11,11,12,13,13,14,15,15,11,12,12,13,14,15,15,16" -inter_matrix "8,8,9,9,10,10,11,11,8,9,9,10,10,11,11,12,9,9,10,10,11,11,12,12,9,10,10,11,11,12,13,13,10,10,11,11,12,13,13,14,10,11,11,12,13,13,14,15,11,11,12,13,13,14,15,15,11,12,12,13,14,15,15,16" -aspect 16:9 -s 720x480 -r 24000/1001 -g 18 -pix_fmt yuv420p -b:v:0 8000000 -maxrate:v:0 8000000 -minrate:v:0 8000000 -bufsize:v:0 1835008 -packetsize 2048 -muxrate 10080000 -b:a 192000 -ar 48000 -c:a:0 ac3 -map 0:V -map 0:a -map -0:s "D:\dvd-cache\entry002.vob"

ffmpeg version 4.1.1 Copyright © 2000–2019 the FFmpeg developers built with gcc 8.2.1 (GCC) 20190212 libavutil 56. 22.100 / 56. 22.100 libavcodec 58. 35.100 / 58. 35.100 libavformat 58. 20.100 / 58. 20.100 libavdevice 58. 5.100 / 58. 5.100 libavfilter 7. 40.101 / 7. 40.101 libswscale 5. 3.100 / 5. 3.100 libswresample 3. 3.100 / 3. 3.100 libpostproc 55. 3.100 / 55. 3.100 Input #0, mov,mp4,m4a,3gp,3g2,mj2, from 'C:\Users\Corentin\Downloads\AnthonyKavanagh-_Je_suis_ton_meilleur_ami_De_AladdinAudio_Only.mp4’: Metadata: major_brand : isom minor_version : 512 compatible_brands: isomiso2avc1mp41 encoder : Lavf58.20.100 Duration: 00:02:37.01, start: 0.000000, bitrate: 231 kb/s Stream #0:0(und): Video: h264 (Main) (avc1 / 0x31637661), yuv420p(tv, bt709), 1280x720 [SAR 1:1 DAR 16:9], 98 kb/s, 23.98 fps, 23.98 tbr, 24k tbn, 47.95 tbc (default) Metadata: handler_name : ISO Media file produced by Google Inc. Stream #0:1(eng): Audio: aac (LC) (mp4a / 0x6134706D), 44100 Hz, stereo, fltp, 127 kb/s (default) Metadata: handler_name : ISO Media file produced by Google Inc. Stream mapping: Stream #0:0 -> #0:0 (h264 (native) -> mpeg2video (native)) Stream #0:1 -> #0:1 (aac (native) -> ac3 (native)) Press [q] to stop, [?] for help Output #0, dvd, to 'D:\dvd-cache\entry002.vob’: Metadata: major_brand : isom minor_version : 512 compatible_brands: isomiso2avc1mp41 encoder : Lavf58.20.100 Stream #0:0(und): Video: mpeg2video (Main), yuv420p, 720x480 [SAR 32:27 DAR 16:9], q=2–31, 8000 kb/s, 23.98 fps, 90k tbn, 23.98 tbc (default) Metadata: handler_name : ISO Media file produced by Google Inc. encoder : Lavc58.35.100 mpeg2video Side data: cpb: bitrate max/min/avg: 8000000/8000000/8000000 buffer size: 1835008 vbv_delay: -1 Stream #0:1(eng): Audio: ac3, 48000 Hz, stereo, fltp, 192 kb/s (default) Metadata: handler_name : ISO Media file produced by Google Inc. encoder : Lavc58.35.100 ac3 frame= 3763 fps= 32 q=2.0 Lsize= 159640kB time=00:02:37.01 bitrate=8328.8kbits/s speed=1.34x
video:153214kB audio:3680kB subtitle:0kB other streams:0kB global headers:0kB muxing overhead: 1.750276%

Transcode video 3 of 6 Add file to cache:D:\dvd-cache\entry003.vob Transcodage du fichier vidéo : C:\Users\Corentin\Downloads\Aladdin2019-_ExtraitPrince_Ali_VFDisney_hd.mp4 Need encode: true, use mplex: false

Executing command: ffmpeg-vbr.bat -fflags +genpts -threads 8 -i "C:\Users\Corentin\Downloads\Aladdin2019-_ExtraitPrince_Ali_VFDisney_hd.mp4" -f dvd -c:v:0 mpeg2video -aspect 16:9 -s 720x480 -r 30000/1001 -g 18 -pix_fmt yuv420p -b:v:0 8000000 -maxrate:v:0 8000000 -minrate:v:0 8000000 -bufsize:v:0 1835008 -packetsize 2048 -muxrate 10080000 -b:a 192000 -ar 48000 -c:a:0 ac3 -map 0:V -map 0:a -map -0:s "D:\dvd-cache\entry003.vob"

FFMpeg-VBR Plugin Settings:

VBR Threshold: 7000 kbps 2-Pass Threshold: 4500 kbps HQ Threshold: 4500 kbps Extreme HQ Threshold: 0 kbps Medium Bitrate Threshold: 7000 kbps

Low Bitrate Threshold: 3500 kbps

<24/03/2020 15:27:40,69> File Name: C:\Users\Corentin\Downloads\Aladdin2019-_ExtraitPrince_Ali_VFDisney_hd.mp4 Encoding Mode: CBR HQ: NO Custom Quant Matrix: Fox New

Executing command generated by the ffmpeg-VBR plugin: ffmpeg.exe -fflags +genpts -threads 8 -i "C:\Users\Corentin\Downloads\Aladdin2019-_ExtraitPrince_Ali_VFDisney_hd.mp4" -f dvd -c:v:0 mpeg2video -dc 10 -intra_matrix "8,8,9,9,10,10,11,11,8,9,9,10,10,11,11,12,9,9,10,10,11,11,12,12,9,10,10,11,11,12,13,13,10,10,11,11,12,13,13,14,10,11,11,12,13,13,14,15,11,11,12,13,13,14,15,15,11,12,12,13,14,15,15,16" -inter_matrix "8,8,9,9,10,10,11,11,8,9,9,10,10,11,11,12,9,9,10,10,11,11,12,12,9,10,10,11,11,12,13,13,10,10,11,11,12,13,13,14,10,11,11,12,13,13,14,15,11,11,12,13,13,14,15,15,11,12,12,13,14,15,15,16" -aspect 16:9 -s 720x480 -r 30000/1001 -g 18 -pix_fmt yuv420p -b:v:0 8000000 -maxrate:v:0 8000000 -minrate:v:0 8000000 -bufsize:v:0 1835008 -packetsize 2048 -muxrate 10080000 -b:a 192000 -ar 48000 -c:a:0 ac3 -map 0:V -map 0:a -map -0:s "D:\dvd-cache\entry003.vob"

ffmpeg version 4.1.1 Copyright © 2000–2019 the FFmpeg developers built with gcc 8.2.1 (GCC) 20190212 libavutil 56. 22.100 / 56. 22.100 libavcodec 58. 35.100 / 58. 35.100 libavformat 58. 20.100 / 58. 20.100 libavdevice 58. 5.100 / 58. 5.100 libavfilter 7. 40.101 / 7. 40.101 libswscale 5. 3.100 / 5. 3.100 libswresample 3. 3.100 / 3. 3.100 libpostproc 55. 3.100 / 55. 3.100 Input #0, mov,mp4,m4a,3gp,3g2,mj2, from 'C:\Users\Corentin\Downloads\Aladdin2019-_ExtraitPrince_Ali_VFDisney_hd.mp4’: Metadata: major_brand : isom minor_version : 512 compatible_brands: isomiso2avc1mp41 encoder : Lavf58.20.100 Duration: 00:01:00.30, start: 0.000000, bitrate: 4149 kb/s Stream #0:0(und): Video: h264 (High) (avc1 / 0x31637661), yuv420p(tv, bt709), 1920x1080 [SAR 1:1 DAR 16:9], 4018 kb/s, 25 fps, 25 tbr, 12800 tbn, 50 tbc (default) Metadata: handler_name : ISO Media file produced by Google Inc. Created on: 05/22/2019. Stream #0:1(eng): Audio: aac (LC) (mp4a / 0x6134706D), 44100 Hz, stereo, fltp, 127 kb/s (default) Metadata: handler_name : ISO Media file produced by Google Inc. Created on: 05/22/2019. Stream mapping: Stream #0:0 -> #0:0 (h264 (native) -> mpeg2video (native)) Stream #0:1 -> #0:1 (aac (native) -> ac3 (native)) Press [q] to stop, [?] for help Output #0, dvd, to 'D:\dvd-cache\entry003.vob’: Metadata: major_brand : isom minor_version : 512 compatible_brands: isomiso2avc1mp41 encoder : Lavf58.20.100 Stream #0:0(und): Video: mpeg2video (Main), yuv420p, 720x480 [SAR 32:27 DAR 16:9], q=2–31, 8000 kb/s, 29.97 fps, 90k tbn, 29.97 tbc (default) Metadata: handler_name : ISO Media file produced by Google Inc. Created on: 05/22/2019. encoder : Lavc58.35.100 mpeg2video Side data: cpb: bitrate max/min/avg: 8000000/8000000/8000000 buffer size: 1835008 vbv_delay: -1 Stream #0:1(eng): Audio: ac3, 48000 Hz, stereo, fltp, 192 kb/s (default) Metadata: handler_name : ISO Media file produced by Google Inc. Created on: 05/22/2019. encoder : Lavc58.35.100 ac3 frame= 1805 fps= 38 q=2.0 Lsize= 61210kB time=00:01:00.31 bitrate=8313.6kbits/s dup=299 drop=0 speed=1.28x
video:58759kB audio:1414kB subtitle:0kB other streams:0kB global headers:0kB muxing overhead: 1.723458%

Transcode video 4 of 6 Add file to cache:D:\dvd-cache\entry004.vob Transcodage du fichier vidéo : C:\Users\Corentin\Downloads\aladdin-2019-je-vole.mp4 Need encode: true, use mplex: false

Executing command: ffmpeg-vbr.bat -fflags +genpts -threads 8 -i "C:\Users\Corentin\Downloads\aladdin-2019-je-vole.mp4" -f dvd -c:v:0 mpeg2video -aspect 16:9 -s 720x480 -r 24000/1001 -g 18 -pix_fmt yuv420p -b:v:0 8000000 -maxrate:v:0 8000000 -minrate:v:0 8000000 -bufsize:v:0 1835008 -packetsize 2048 -muxrate 10080000 -vf scale=720:360,pad=720:480:0:60 -b:a 192000 -ar 48000 -c:a:0 ac3 -map 0:V -map 0:a -map -0:s "D:\dvd-cache\entry004.vob"

FFMpeg-VBR Plugin Settings:

VBR Threshold: 7000 kbps 2-Pass Threshold: 4500 kbps HQ Threshold: 4500 kbps Extreme HQ Threshold: 0 kbps Medium Bitrate Threshold: 7000 kbps

Low Bitrate Threshold: 3500 kbps

<24/03/2020 15:28:30,01> File Name: C:\Users\Corentin\Downloads\aladdin-2019-je-vole.mp4 Encoding Mode: CBR HQ: NO Custom Quant Matrix: Fox New

Executing command generated by the ffmpeg-VBR plugin: ffmpeg.exe -fflags +genpts -threads 8 -i "C:\Users\Corentin\Downloads\aladdin-2019-je-vole.mp4" -f dvd -c:v:0 mpeg2video -dc 10 -intra_matrix "8,8,9,9,10,10,11,11,8,9,9,10,10,11,11,12,9,9,10,10,11,11,12,12,9,10,10,11,11,12,13,13,10,10,11,11,12,13,13,14,10,11,11,12,13,13,14,15,11,11,12,13,13,14,15,15,11,12,12,13,14,15,15,16" -inter_matrix "8,8,9,9,10,10,11,11,8,9,9,10,10,11,11,12,9,9,10,10,11,11,12,12,9,10,10,11,11,12,13,13,10,10,11,11,12,13,13,14,10,11,11,12,13,13,14,15,11,11,12,13,13,14,15,15,11,12,12,13,14,15,15,16" -aspect 16:9 -s 720x480 -r 24000/1001 -g 18 -pix_fmt yuv420p -b:v:0 8000000 -maxrate:v:0 8000000 -minrate:v:0 8000000 -bufsize:v:0 1835008 -packetsize 2048 -muxrate 10080000 -vf scale=720:360,pad=720:480:0:60 -b:a 192000 -ar 48000 -c:a:0 ac3 -map 0:V -map 0:a -map -0:s "D:\dvd-cache\entry004.vob"

ffmpeg version 4.1.1 Copyright © 2000–2019 the FFmpeg developers built with gcc 8.2.1 (GCC) 20190212 libavutil 56. 22.100 / 56. 22.100 libavcodec 58. 35.100 / 58. 35.100 libavformat 58. 20.100 / 58. 20.100 libavdevice 58. 5.100 / 58. 5.100 libavfilter 7. 40.101 / 7. 40.101 libswscale 5. 3.100 / 5. 3.100 libswresample 3. 3.100 / 3. 3.100 libpostproc 55. 3.100 / 55. 3.100 Input #0, mov,mp4,m4a,3gp,3g2,mj2, from 'C:\Users\Corentin\Downloads\aladdin-2019-je-vole.mp4’: Metadata: major_brand : isom minor_version : 512 compatible_brands: isomiso2avc1mp41 title : Aladdin (2019) - Je Vole artist : Clment GABIER date : 20190928 encoder : Lavf57.56.101 comment : Chanson "Je Vole" interprte par Aladdin, les gardes et les habitants d’Agrabah dans le remake de Aladdin. description : Chanson "Je Vole" interprte par Aladdin, les gardes et les habitants d’Agrabah dans le remake de Aladdin. Duration: 00:03:14.21, start: 0.000000, bitrate: 3298 kb/s Stream #0:0(und): Video: h264 (High) (avc1 / 0x31637661), yuv420p(tv, bt709), 1920x808 [SAR 1:1 DAR 240:101], 3165 kb/s, 23.98 fps, 23.98 tbr, 24k tbn, 47.95 tbc (default) Metadata: handler_name : VideoHandler Stream #0:1(eng): Audio: aac (LC) (mp4a / 0x6134706D), 44100 Hz, stereo, fltp, 128 kb/s (default) Metadata: handler_name : SoundHandler Stream mapping: Stream #0:0 -> #0:0 (h264 (native) -> mpeg2video (native)) Stream #0:1 -> #0:1 (aac (native) -> ac3 (native)) Press [q] to stop, [?] for help Output #0, dvd, to 'D:\dvd-cache\entry004.vob’: Metadata: major_brand : isom minor_version : 512 compatible_brands: isomiso2avc1mp41 title : Aladdin (2019) - Je Vole artist : Clment GABIER date : 20190928 description : Chanson "Je Vole" interprte par Aladdin, les gardes et les habitants d’Agrabah dans le remake de Aladdin. comment : Chanson "Je Vole" interprte par Aladdin, les gardes et les habitants d’Agrabah dans le remake de Aladdin. encoder : Lavf58.20.100 Stream #0:0(und): Video: mpeg2video (Main), yuv420p, 720x480 [SAR 32:27 DAR 16:9], q=2–31, 8000 kb/s, 23.98 fps, 90k tbn, 23.98 tbc (default) Metadata: handler_name : VideoHandler encoder : Lavc58.35.100 mpeg2video Side data: cpb: bitrate max/min/avg: 8000000/8000000/8000000 buffer size: 1835008 vbv_delay: -1 Stream #0:1(eng): Audio: ac3, 48000 Hz, stereo, fltp, 192 kb/s (default) Metadata: handler_name : SoundHandler encoder : Lavc58.35.100 ac3 frame= 4655 fps= 45 q=1.6 Lsize= 197334kB time=00:03:14.23 bitrate=8322.7kbits/s speed=1.89x
video:189545kB audio:4552kB subtitle:0kB other streams:0kB global headers:0kB muxing overhead: 1.667215%

Transcode video 5 of 6 Add file to cache:D:\dvd-cache\entry005.vob Transcodage du fichier vidéo : C:\Users\Corentin\Downloads\Aladdin2019-_ExtraitCe_Reve_Bleu_VFDisney_hd.mp4 Need encode: true, use mplex: false

Executing command: ffmpeg-vbr.bat -fflags +genpts -threads 8 -i "C:\Users\Corentin\Downloads\Aladdin2019-_ExtraitCe_Reve_Bleu_VFDisney_hd.mp4" -f dvd -c:v:0 mpeg2video -aspect 16:9 -s 720x480 -r 30000/1001 -g 18 -pix_fmt yuv420p -b:v:0 8000000 -maxrate:v:0 8000000 -minrate:v:0 8000000 -bufsize:v:0 1835008 -packetsize 2048 -muxrate 10080000 -b:a 192000 -ar 48000 -c:a:0 ac3 -map 0:V -map 0:a -map -0:s "D:\dvd-cache\entry005.vob"

FFMpeg-VBR Plugin Settings:

VBR Threshold: 7000 kbps 2-Pass Threshold: 4500 kbps HQ Threshold: 4500 kbps Extreme HQ Threshold: 0 kbps Medium Bitrate Threshold: 7000 kbps

Low Bitrate Threshold: 3500 kbps

<24/03/2020 15:30:17,56> File Name: C:\Users\Corentin\Downloads\Aladdin2019-_ExtraitCe_Reve_Bleu_VFDisney_hd.mp4 Encoding Mode: CBR HQ: NO Custom Quant Matrix: Fox New

Executing command generated by the ffmpeg-VBR plugin: ffmpeg.exe -fflags +genpts -threads 8 -i "C:\Users\Corentin\Downloads\Aladdin2019-_ExtraitCe_Reve_Bleu_VFDisney_hd.mp4" -f dvd -c:v:0 mpeg2video -dc 10 -intra_matrix "8,8,9,9,10,10,11,11,8,9,9,10,10,11,11,12,9,9,10,10,11,11,12,12,9,10,10,11,11,12,13,13,10,10,11,11,12,13,13,14,10,11,11,12,13,13,14,15,11,11,12,13,13,14,15,15,11,12,12,13,14,15,15,16" -inter_matrix "8,8,9,9,10,10,11,11,8,9,9,10,10,11,11,12,9,9,10,10,11,11,12,12,9,10,10,11,11,12,13,13,10,10,11,11,12,13,13,14,10,11,11,12,13,13,14,15,11,11,12,13,13,14,15,15,11,12,12,13,14,15,15,16" -aspect 16:9 -s 720x480 -r 30000/1001 -g 18 -pix_fmt yuv420p -b:v:0 8000000 -maxrate:v:0 8000000 -minrate:v:0 8000000 -bufsize:v:0 1835008 -packetsize 2048 -muxrate 10080000 -b:a 192000 -ar 48000 -c:a:0 ac3 -map 0:V -map 0:a -map -0:s "D:\dvd-cache\entry005.vob"

ffmpeg version 4.1.1 Copyright © 2000–2019 the FFmpeg developers built with gcc 8.2.1 (GCC) 20190212 libavutil 56. 22.100 / 56. 22.100 libavcodec 58. 35.100 / 58. 35.100 libavformat 58. 20.100 / 58. 20.100 libavdevice 58. 5.100 / 58. 5.100 libavfilter 7. 40.101 / 7. 40.101 libswscale 5. 3.100 / 5. 3.100 libswresample 3. 3.100 / 3. 3.100 libpostproc 55. 3.100 / 55. 3.100 Input #0, mov,mp4,m4a,3gp,3g2,mj2, from 'C:\Users\Corentin\Downloads\Aladdin2019-_ExtraitCe_Reve_Bleu_VFDisney_hd.mp4’: Metadata: major_brand : isom minor_version : 512 compatible_brands: isomiso2avc1mp41 encoder : Lavf58.20.100 Duration: 00:01:12.31, start: 0.000000, bitrate: 1194 kb/s Stream #0:0(und): Video: h264 (High) (avc1 / 0x31637661), yuv420p(tv, bt709), 1920x1080 [SAR 1:1 DAR 16:9], 1060 kb/s, 25 fps, 25 tbr, 12800 tbn, 50 tbc (default) Metadata: handler_name : ISO Media file produced by Google Inc. Created on: 05/29/2019. Stream #0:1(eng): Audio: aac (LC) (mp4a / 0x6134706D), 44100 Hz, stereo, fltp, 127 kb/s (default) Metadata: handler_name : ISO Media file produced by Google Inc. Created on: 05/29/2019. Stream mapping: Stream #0:0 -> #0:0 (h264 (native) -> mpeg2video (native)) Stream #0:1 -> #0:1 (aac (native) -> ac3 (native)) Press [q] to stop, [?] for help Output #0, dvd, to 'D:\dvd-cache\entry005.vob’: Metadata: major_brand : isom minor_version : 512 compatible_brands: isomiso2avc1mp41 encoder : Lavf58.20.100 Stream #0:0(und): Video: mpeg2video (Main), yuv420p, 720x480 [SAR 32:27 DAR 16:9], q=2–31, 8000 kb/s, 29.97 fps, 90k tbn, 29.97 tbc (default) Metadata: handler_name : ISO Media file produced by Google Inc. Created on: 05/29/2019. encoder : Lavc58.35.100 mpeg2video Side data: cpb: bitrate max/min/avg: 8000000/8000000/8000000 buffer size: 1835008 vbv_delay: -1 Stream #0:1(eng): Audio: ac3, 48000 Hz, stereo, fltp, 192 kb/s (default) Metadata: handler_name : ISO Media file produced by Google Inc. Created on: 05/29/2019. encoder : Lavc58.35.100 ac3 frame= 2165 fps= 41 q=2.0 Lsize= 73366kB time=00:01:12.31 bitrate=8311.1kbits/s dup=359 drop=0 speed=1.36x
video:70490kB audio:1695kB subtitle:0kB other streams:0kB global headers:0kB muxing overhead: 1.636569%

Transcode video 6 of 6 Add file to cache:D:\dvd-cache\entry006.vob Transcodage du fichier vidéo : C:\Users\Corentin\Downloads\HibaTawaji-_Parler_2eme_partie_De_AladdinAudio_Only.mp4 Need encode: true, use mplex: false

Executing command: ffmpeg-vbr.bat -fflags +genpts -threads 8 -i "C:\Users\Corentin\Downloads\HibaTawaji-_Parler_2eme_partie_De_AladdinAudio_Only.mp4" -f dvd -c:v:0 mpeg2video -aspect 16:9 -s 720x480 -r 24000/1001 -g 18 -pix_fmt yuv420p -b:v:0 8000000 -maxrate:v:0 8000000 -minrate:v:0 8000000 -bufsize:v:0 1835008 -packetsize 2048 -muxrate 10080000 -b:a 192000 -ar 48000 -c:a:0 ac3 -map 0:V -map 0:a -map -0:s "D:\dvd-cache\entry006.vob"

FFMpeg-VBR Plugin Settings:

VBR Threshold: 7000 kbps 2-Pass Threshold: 4500 kbps HQ Threshold: 4500 kbps Extreme HQ Threshold: 0 kbps Medium Bitrate Threshold: 7000 kbps

Low Bitrate Threshold: 3500 kbps

<24/03/2020 15:31:15,15> File Name: C:\Users\Corentin\Downloads\HibaTawaji-_Parler_2eme_partie_De_AladdinAudio_Only.mp4 Encoding Mode: CBR HQ: NO Custom Quant Matrix: Fox New

Executing command generated by the ffmpeg-VBR plugin: ffmpeg.exe -fflags +genpts -threads 8 -i "C:\Users\Corentin\Downloads\HibaTawaji-_Parler_2eme_partie_De_AladdinAudio_Only.mp4" -f dvd -c:v:0 mpeg2video -dc 10 -intra_matrix "8,8,9,9,10,10,11,11,8,9,9,10,10,11,11,12,9,9,10,10,11,11,12,12,9,10,10,11,11,12,13,13,10,10,11,11,12,13,13,14,10,11,11,12,13,13,14,15,11,11,12,13,13,14,15,15,11,12,12,13,14,15,15,16" -inter_matrix "8,8,9,9,10,10,11,11,8,9,9,10,10,11,11,12,9,9,10,10,11,11,12,12,9,10,10,11,11,12,13,13,10,10,11,11,12,13,13,14,10,11,11,12,13,13,14,15,11,11,12,13,13,14,15,15,11,12,12,13,14,15,15,16" -aspect 16:9 -s 720x480 -r 24000/1001 -g 18 -pix_fmt yuv420p -b:v:0 8000000 -maxrate:v:0 8000000 -minrate:v:0 8000000 -bufsize:v:0 1835008 -packetsize 2048 -muxrate 10080000 -b:a 192000 -ar 48000 -c:a:0 ac3 -map 0:V -map 0:a -map -0:s "D:\dvd-cache\entry006.vob"

ffmpeg version 4.1.1 Copyright © 2000–2019 the FFmpeg developers built with gcc 8.2.1 (GCC) 20190212 libavutil 56. 22.100 / 56. 22.100 libavcodec 58. 35.100 / 58. 35.100 libavformat 58. 20.100 / 58. 20.100 libavdevice 58. 5.100 / 58. 5.100 libavfilter 7. 40.101 / 7. 40.101 libswscale 5. 3.100 / 5. 3.100 libswresample 3. 3.100 / 3. 3.100 libpostproc 55. 3.100 / 55. 3.100 Input #0, mov,mp4,m4a,3gp,3g2,mj2, from 'C:\Users\Corentin\Downloads\HibaTawaji-_Parler_2eme_partie_De_AladdinAudio_Only.mp4’: Metadata: major_brand : isom minor_version : 512 compatible_brands: isomiso2avc1mp41 encoder : Lavf58.20.100 Duration: 00:02:24.85, start: 0.000000, bitrate: 239 kb/s Stream #0:0(und): Video: h264 (Main) (avc1 / 0x31637661), yuv420p(tv, bt709), 1280x720 [SAR 1:1 DAR 16:9], 105 kb/s, 23.98 fps, 23.98 tbr, 24k tbn, 47.95 tbc (default) Metadata: handler_name : ISO Media file produced by Google Inc. Created on: 05/22/2019. Stream #0:1(eng): Audio: aac (LC) (mp4a / 0x6134706D), 44100 Hz, stereo, fltp, 127 kb/s (default) Metadata: handler_name : ISO Media file produced by Google Inc. Created on: 05/22/2019. Stream mapping: Stream #0:0 -> #0:0 (h264 (native) -> mpeg2video (native)) Stream #0:1 -> #0:1 (aac (native) -> ac3 (native)) Press [q] to stop, [?] for help Output #0, dvd, to 'D:\dvd-cache\entry006.vob’: Metadata: major_brand : isom minor_version : 512 compatible_brands: isomiso2avc1mp41 encoder : Lavf58.20.100 Stream #0:0(und): Video: mpeg2video (Main), yuv420p, 720x480 [SAR 32:27 DAR 16:9], q=2–31, 8000 kb/s, 23.98 fps, 90k tbn, 23.98 tbc (default) Metadata: handler_name : ISO Media file produced by Google Inc. Created on: 05/22/2019. encoder : Lavc58.35.100 mpeg2video Side data: cpb: bitrate max/min/avg: 8000000/8000000/8000000 buffer size: 1835008 vbv_delay: -1 Stream #0:1(eng): Audio: ac3, 48000 Hz, stereo, fltp, 192 kb/s (default) Metadata: handler_name : ISO Media file produced by Google Inc. Created on: 05/22/2019. encoder : Lavc58.35.100 ac3 frame= 3471 fps= 41 q=2.0 Lsize= 147246kB time=00:02:24.85 bitrate=8327.0kbits/s speed=1.69x
video:141320kB audio:3395kB subtitle:0kB other streams:0kB global headers:0kB muxing overhead: 1.748565%

========================= | Result size VMGM menu 1 | 0.1 MB Menu 1 | 0.1 MB Menu 2 | 0.1 MB Title 1 | 193.4 MB Title 2 | 155.9 MB Title 3 | 59.8 MB Title 4 | 192.7 MB Title 5 | 71.6 MB Title 6 | 143.8 MB

Total | 817.6 MB

Génération du DVD Executing command: dvdauthor -o "D:\dvd-out" -x "D:\dvd-tmp\dvdauthor.xml" DVDAuthor::dvdauthor, version 0.7.1. Build options: gnugetopt iconv freetype fribidi fontconfig Send bug reports to dvdauthor-users@lists.sourceforge.net INFO: no default video format, must explicitly specify NTSC or PAL INFO: dvdauthor creating VTS STAT: Picking VTS 01 STAT: Processing D:\dvd-tmp\menu1–0.mpg… WARN: Audio pts for channel 0 moves backwards by 10752; please remultiplex input. WARN: Previous sector: 0.530 - 0.786 WARN: Current sector: 0.667 - 0.923 INFO: Video pts = 0.533 .. 1.000 INFO: Audio[0] pts = 0.530 .. 0.923 INFO: Audio[32] pts = 0.533 .. 0.533 STAT: Processing D:\dvd-tmp\menu1–1.mpg… WARN: Audio pts for channel 0 moves backwards by 10752; please remultiplex input. WARN: Previous sector: 0.530 - 0.786 WARN: Current sector: 0.667 - 0.923 INFO: Video pts = 0.533 .. 1.000 INFO: Audio[0] pts = 0.530 .. 0.923 INFO: Audio[32] pts = 0.533 .. 0.533 STAT: VOBU 2 at 0MB, 2 PGCs CHAPTERS: VTS[1/1] 0.000 CHAPTERS: VTS[2/1] 0.000 INFO: Generating VTSM with the following video attributes: INFO: MPEG version: mpeg2 INFO: TV standard: ntsc INFO: Aspect ratio: 4:3 INFO: Resolution: 720x480 INFO: Audio ch 0 format: ac3/2ch, 48khz drc, 'fr' STAT: Processing D:\dvd-cache\entry001.vob… WARN: not a valid DVD frame rate: 0x01 WARN: attempt to update frame rate from 30000.0/1001.0 (NTSC VIDEO) to 24000.0/1001.0 (NTSC 3:2 pulldown converted FILM); skipping STAT: VOBU 16 at 10MB, 6 PGCs STAT: VOBU 32 at 22MB, 6 PGCs STAT: VOBU 48 at 34MB, 6 PGCs STAT: VOBU 64 at 46MB, 6 PGCs STAT: VOBU 80 at 58MB, 6 PGCs STAT: VOBU 96 at 70MB, 6 PGCs STAT: VOBU 112 at 82MB, 6 PGCs STAT: VOBU 128 at 94MB, 6 PGCs STAT: VOBU 144 at 106MB, 6 PGCs STAT: VOBU 160 at 118MB, 6 PGCs STAT: VOBU 176 at 130MB, 6 PGCs STAT: VOBU 192 at 142MB, 6 PGCs STAT: VOBU 208 at 154MB, 6 PGCs STAT: VOBU 224 at 166MB, 6 PGCs STAT: VOBU 240 at 177MB, 6 PGCs STAT: VOBU 256 at 189MB, 6 PGCs INFO: Video pts = 0.541 .. 195.169 INFO: Audio[0] pts = 0.536 .. 195.352 STAT: Processing D:\dvd-cache\entry002.vob… STAT: VOBU 276 at 204MB, 6 PGCs STAT: VOBU 292 at 216MB, 6 PGCs STAT: VOBU 308 at 228MB, 6 PGCs STAT: VOBU 324 at 240MB, 6 PGCs STAT: VOBU 340 at 252MB, 6 PGCs STAT: VOBU 356 at 264MB, 6 PGCs STAT: VOBU 372 at 275MB, 6 PGCs STAT: VOBU 388 at 287MB, 6 PGCs STAT: VOBU 404 at 299MB, 6 PGCs STAT: VOBU 420 at 311MB, 6 PGCs STAT: VOBU 436 at 323MB, 6 PGCs STAT: VOBU 452 at 335MB, 6 PGCs STAT: VOBU 468 at 347MB, 6 PGCs INFO: Video pts = 0.541 .. 157.381 INFO: Audio[0] pts = 0.536 .. 157.560 STAT: Processing D:\dvd-cache\entry003.vob… STAT: VOBU 486 at 358MB, 6 PGCs STAT: VOBU 502 at 367MB, 6 PGCs STAT: VOBU 518 at 377MB, 6 PGCs STAT: VOBU 534 at 386MB, 6 PGCs STAT: VOBU 550 at 396MB, 6 PGCs STAT: VOBU 566 at 406MB, 6 PGCs INFO: Video pts = 0.533 .. 60.760 INFO: Audio[0] pts = 0.528 .. 60.848 STAT: Processing D:\dvd-cache\entry004.vob… STAT: VOBU 587 at 420MB, 6 PGCs STAT: VOBU 603 at 432MB, 6 PGCs STAT: VOBU 619 at 444MB, 6 PGCs STAT: VOBU 635 at 456MB, 6 PGCs STAT: VOBU 651 at 468MB, 6 PGCs STAT: VOBU 667 at 479MB, 6 PGCs STAT: VOBU 683 at 491MB, 6 PGCs STAT: VOBU 699 at 503MB, 6 PGCs STAT: VOBU 715 at 515MB, 6 PGCs STAT: VOBU 731 at 527MB, 6 PGCs STAT: VOBU 747 at 539MB, 6 PGCs STAT: VOBU 763 at 551MB, 6 PGCs STAT: VOBU 779 at 563MB, 6 PGCs STAT: VOBU 795 at 575MB, 6 PGCs STAT: VOBU 811 at 587MB, 6 PGCs STAT: VOBU 827 at 599MB, 6 PGCs INFO: Video pts = 0.541 .. 194.618 INFO: Audio[0] pts = 0.536 .. 194.776 STAT: Processing D:\dvd-cache\entry005.vob… STAT: VOBU 846 at 610MB, 6 PGCs STAT: VOBU 862 at 620MB, 6 PGCs STAT: VOBU 878 at 629MB, 6 PGCs STAT: VOBU 894 at 639MB, 6 PGCs STAT: VOBU 910 at 648MB, 6 PGCs STAT: VOBU 926 at 658MB, 6 PGCs STAT: VOBU 942 at 667MB, 6 PGCs INFO: Video pts = 0.533 .. 72.772 INFO: Audio[0] pts = 0.528 .. 72.848 STAT: Processing D:\dvd-cache\entry006.vob… STAT: VOBU 967 at 684MB, 6 PGCs STAT: VOBU 983 at 696MB, 6 PGCs STAT: VOBU 999 at 708MB, 6 PGCs STAT: VOBU 1015 at 720MB, 6 PGCs STAT: VOBU 1031 at 732MB, 6 PGCs STAT: VOBU 1047 at 744MB, 6 PGCs STAT: VOBU 1063 at 755MB, 6 PGCs STAT: VOBU 1079 at 767MB, 6 PGCs STAT: VOBU 1095 at 779MB, 6 PGCs STAT: VOBU 1111 at 791MB, 6 PGCs STAT: VOBU 1127 at 803MB, 6 PGCs STAT: VOBU 1143 at 815MB, 6 PGCs INFO: Video pts = 0.541 .. 145.202 INFO: Audio[0] pts = 0.536 .. 145.400 STAT: VOBU 1144 at 817MB, 6 PGCs CHAPTERS: VTS[1/1] 0.000 CHAPTERS: VTS[2/1] 0.000 CHAPTERS: VTS[3/1] 0.000 CHAPTERS: VTS[4/1] 0.000 CHAPTERS: VTS[5/1] 0.000 CHAPTERS: VTS[6/1] 0.000 INFO: Generating VTS with the following video attributes: INFO: MPEG version: mpeg2 INFO: TV standard: ntsc INFO: Aspect ratio: 16:9 INFO: Resolution: 720x480 INFO: Audio ch 0 format: ac3/2ch, 48khz drc, 'en' STAT: fixed 2 VOBUs
STAT: fixing VOBU at 10MB (17/1144, 1%) STAT: fixing VOBU at 46MB (65/1144, 5%) STAT: fixing VOBU at 94MB (129/1144, 11%) STAT: fixing VOBU at 130MB (177/1144, 15%) STAT: fixing VOBU at 177MB (241/1144, 20%) STAT: fixing VOBU at 213MB (289/1144, 25%) STAT: fixing VOBU at 261MB (353/1144, 30%) STAT: fixing VOBU at 308MB (417/1144, 36%) STAT: fixing VOBU at 344MB (465/1144, 40%) STAT: fixing VOBU at 383MB (529/1144, 46%) STAT: fixing VOBU at 412MB (577/1144, 50%) STAT: fixing VOBU at 459MB (641/1144, 55%) STAT: fixing VOBU at 495MB (689/1144, 60%) STAT: fixing VOBU at 543MB (753/1144, 65%) STAT: fixing VOBU at 591MB (817/1144, 71%) STAT: fixing VOBU at 621MB (865/1144, 75%) STAT: fixing VOBU at 659MB (929/1144, 81%) STAT: fixing VOBU at 691MB (977/1144, 85%) STAT: fixing VOBU at 738MB (1041/1144, 90%) STAT: fixing VOBU at 774MB (1089/1144, 95%) STAT: fixed 1144 VOBUs
INFO: dvdauthor creating table of contents INFO: Scanning D:\dvd-out/VIDEO_TS/VTS_01_0.IFO INFO: Creating menu for TOC STAT: Processing D:\dvd-tmp\menu0–0.mpg… WARN: Audio pts for channel 0 moves backwards by 10752; please remultiplex input. WARN: Previous sector: 0.530 - 0.786 WARN: Current sector: 0.667 - 0.923 INFO: Video pts = 0.533 .. 1.000 INFO: Audio[0] pts = 0.530 .. 0.923 INFO: Audio[32] pts = 0.533 .. 0.533 STAT: VOBU 1 at 0MB, 1 PGCs CHAPTERS: VTS[1/1] 0.000 INFO: Generating VMGM with the following video attributes: INFO: MPEG version: mpeg2 INFO: TV standard: ntsc INFO: Aspect ratio: 4:3 INFO: Resolution: 720x480 INFO: Audio ch 0 format: ac3/2ch, 48khz drc, 'fr' STAT: fixed 1 VOBUs
Gravure en cours Disc size: 554 MB ISO Size: 818 MB Executing command: growisofs -V "Aladdin" -dvd-compat -Z D: -dvd-video "D:\dvd-out" Executing 'C:\Program Files\DVDStyler\bin\mkisofs.exe -V Aladdin -dvd-video D:\dvd-out | builtin_dd of=\.\D: obs=32k seek=0' 1.19% done, estimate finish Tue Mar 24 16:08:40 2020 :-( unable to umount D:: Accès refusé. mkisofs: Broken pipe. cannot fwrite 32768*1 Échec

merci d’avance, au revoir

Édité par nathan.corneville

+0 -0

Salut @nathan.corneville et bienvenue sur Zeste de Savoir ! :)

Pour rendre ton long message plus facile à lire, est-ce que tu pourrais l’éditer et mettre toutes les infos du compte-rendu dans une balise "secret" ? Il suffit de sélectionner ton texte et de cliquer sur l’icône de i dans un cercle bleu puis sur le cadenas.

Concernant ton problème, les seules lignes qui sont importantes (là où se trouve le problème) sont les suivantes :

:-( unable to umount D:: Accès refusé.
mkisofs: Broken pipe. cannot fwrite 32768*1
Échec

Je ne sais pas trop pourquoi ça s’est produit mais en faisant une recherche je découvre que tu n’es pas le seul dans ce cas ! La solution, c’est donc de ne pas graver le DVD mais créer uniquement le fichier ISO, puis de le graver séparément avec un logiciel de gravure.

Édité par PG06

“I don’t love studying. I hate studying. I like learning. Learning is beautiful.” – Natalie Portman

+0 -0

Bonjour, merci de votre réponse rapide ! j’ai conscience du fait que mon message soit pas très compréhensibles mais j’ai l’impréssion que l’essentiel à étais compris. Je vais malgré sa vous redonné le contenu du document texte dvdstyler.log qui à étais placé dans le DVD aprés l’échec et avec vos suggestion pour rendre la lecture plus simple.

DVDStyler v3.1 Windows 10 (version 18362), édition 64-bit FFmpeg: libavformat 58.20.100, libavcodec 58.35.100, libavutil 56.22.100 Préparation Nettoyage du dossier temporaire

Recherche dans le cache des fichiers transcodés

        | Input size | Output duration | Bitrate  | Estimated output size

VMGM menu 1 | | | 8.0 Mb/s | 0.1 MB VMGM menu 2 | | | 8.0 Mb/s | 0.1 MB VMGM menu 3 | | | 8.0 Mb/s | 0.1 MB Title 1 mp4 | 5.4 MB | 3:14.793 sec | 8.0 Mb/s | 194.8 MB Title 2 mp4 | 4.3 MB | 2:37.014 sec | 8.0 Mb/s | 157.0 MB Title 3 mp4 | 29.8 MB | 1:00.303 sec | 8.0 Mb/s | 60.3 MB Title 4 mp4 | 76.4 MB | 3:14.212 sec | 8.0 Mb/s | 194.2 MB Title 5 mp4 | 10.3 MB | 1:12.307 sec | 8.0 Mb/s | 72.3 MB Title 6 mp4 | 4.1 MB | 2:24.847 sec | 8.0 Mb/s | 144.8 MB

Total | | 13:43.476 sec | | 823.8 MB

Génération du menu 1 sur 3 Création du menu MPEG Nombre d’images du menu : 12 Multiplexage des boutons sous-images en MPEG Executing command: spumux -P -s 0 "D:\dvd-tmp\menu0–0.mpgspumux.xml" DVDAuthor::spumux, version 0.7.1. Build options: gnugetopt iconv freetype fribidi fontconfig Send bug reports to dvdauthor-users@lists.sourceforge.net INFO: no default video format, must explicitly specify NTSC or PAL INFO: PNG had 1 colors INFO: PNG had 4 colors INFO: PNG had 4 colors INFO: Pickbuttongroups, success with 1 groups, useimg=1 INFO: 0 bytes of data written INFO: 32768 bytes of data written INFO: 65536 bytes of data written INFO: 98304 bytes of data written INFO: 131072 bytes of data written INFO: Found EOF in .sub file. INFO: Max_sub_size=56 INFO: 1 subtitles added, 0 subtitles skipped, stream: 32, offset: 0.54 Génération du menu 2 sur 3 Création du menu MPEG Nombre d’images du menu : 12 Multiplexage des boutons sous-images en MPEG Executing command: spumux -P -s 0 "D:\dvd-tmp\menu0–1.mpg_spumux.xml" DVDAuthor::spumux, version 0.7.1. Build options: gnugetopt iconv freetype fribidi fontconfig Send bug reports to dvdauthor-users@lists.sourceforge.net INFO: no default video format, must explicitly specify NTSC or PAL INFO: PNG had 1 colors INFO: PNG had 8 colors INFO: PNG had 8 colors INFO: Pickbuttongroups, success with 3 groups, useimg=1 INFO: 0 bytes of data written INFO: 28672 bytes of data written INFO: 55296 bytes of data written INFO: 83968 bytes of data written INFO: 110592 bytes of data written INFO: Found EOF in .sub file. INFO: Max_sub_size=1268 INFO: 1 subtitles added, 0 subtitles skipped, stream: 32, offset: 0.54 Génération du menu 3 sur 3 Création du menu MPEG Nombre d’images du menu : 12 Multiplexage des boutons sous-images en MPEG Executing command: spumux -P -s 0 "D:\dvd-tmp\menu0–2.mpg_spumux.xml" DVDAuthor::spumux, version 0.7.1. Build options: gnugetopt iconv freetype fribidi fontconfig Send bug reports to dvdauthor-users@lists.sourceforge.net INFO: no default video format, must explicitly specify NTSC or PAL INFO: PNG had 1 colors INFO: PNG had 10 colors INFO: PNG had 10 colors INFO: Pickbuttongroups, success with 3 groups, useimg=1 INFO: 0 bytes of data written INFO: 26624 bytes of data written INFO: 53248 bytes of data written INFO: 79872 bytes of data written INFO: 106496 bytes of data written INFO: Found EOF in .sub file. INFO: Max_sub_size=1084 INFO: 1 subtitles added, 0 subtitles skipped, stream: 32, offset: 0.54 Transcode video 1 of 6 Add file to cache:D:\dvd-cache\entry001.vob Transcodage du fichier vidéo : C:\Users\Corentin\Downloads\Anthony_Kavanagh-_Nuits_dArabie_2019_De_AladdinAudio_Only.mp4 Need encode: true, use mplex: false

Executing command: ffmpeg-vbr.bat -fflags +genpts -threads 8 -i "C:\Users\Corentin\Downloads\AnthonyKavanagh-_Nuits_dArabie_2019_De_AladdinAudio_Only.mp4" -f dvd -c:v:0 mpeg2video -aspect 16:9 -s 720x480 -r 24000/1001 -g 18 -pix_fmt yuv420p -b:v:0 8000000 -maxrate:v:0 8000000 -minrate:v:0 8000000 -bufsize:v:0 1835008 -packetsize 2048 -muxrate 10080000 -b:a 192000 -ar 48000 -c:a:0 ac3 -map 0:V -map 0:a -map -0:s "D:\dvd-cache\entry001.vob"

FFMpeg-VBR Plugin Settings:

VBR Threshold: 7000 kbps 2-Pass Threshold: 4500 kbps HQ Threshold: 4500 kbps Extreme HQ Threshold: 0 kbps Medium Bitrate Threshold: 7000 kbps

Low Bitrate Threshold: 3500 kbps

<24/03/2020 17:53:01,26> File Name: C:\Users\Corentin\Downloads\AnthonyKavanagh-_Nuits_dArabie_2019_De_AladdinAudio_Only.mp4 Encoding Mode: CBR HQ: NO Custom Quant Matrix: Fox New

Executing command generated by the ffmpeg-VBR plugin: ffmpeg.exe -fflags +genpts -threads 8 -i "C:\Users\Corentin\Downloads\AnthonyKavanagh-_Nuits_dArabie_2019_De_AladdinAudio_Only.mp4" -f dvd -c:v:0 mpeg2video -dc 10 -intra_matrix "8,8,9,9,10,10,11,11,8,9,9,10,10,11,11,12,9,9,10,10,11,11,12,12,9,10,10,11,11,12,13,13,10,10,11,11,12,13,13,14,10,11,11,12,13,13,14,15,11,11,12,13,13,14,15,15,11,12,12,13,14,15,15,16" -inter_matrix "8,8,9,9,10,10,11,11,8,9,9,10,10,11,11,12,9,9,10,10,11,11,12,12,9,10,10,11,11,12,13,13,10,10,11,11,12,13,13,14,10,11,11,12,13,13,14,15,11,11,12,13,13,14,15,15,11,12,12,13,14,15,15,16" -aspect 16:9 -s 720x480 -r 24000/1001 -g 18 -pix_fmt yuv420p -b:v:0 8000000 -maxrate:v:0 8000000 -minrate:v:0 8000000 -bufsize:v:0 1835008 -packetsize 2048 -muxrate 10080000 -b:a 192000 -ar 48000 -c:a:0 ac3 -map 0:V -map 0:a -map -0:s "D:\dvd-cache\entry001.vob"

ffmpeg version 4.1.1 Copyright © 2000–2019 the FFmpeg developers built with gcc 8.2.1 (GCC) 20190212 libavutil 56. 22.100 / 56. 22.100 libavcodec 58. 35.100 / 58. 35.100 libavformat 58. 20.100 / 58. 20.100 libavdevice 58. 5.100 / 58. 5.100 libavfilter 7. 40.101 / 7. 40.101 libswscale 5. 3.100 / 5. 3.100 libswresample 3. 3.100 / 3. 3.100 libpostproc 55. 3.100 / 55. 3.100 Input #0, mov,mp4,m4a,3gp,3g2,mj2, from 'C:\Users\Corentin\Downloads\AnthonyKavanagh-_Nuits_dArabie_2019_De_AladdinAudio_Only.mp4’: Metadata: major_brand : isom minor_version : 512 compatible_brands: isomiso2avc1mp41 encoder : Lavf58.20.100 Duration: 00:03:14.79, start: 0.000000, bitrate: 231 kb/s Stream #0:0(und): Video: h264 (Main) (avc1 / 0x31637661), yuv420p(tv, bt709), 1280x720 [SAR 1:1 DAR 16:9], 98 kb/s, 23.98 fps, 23.98 tbr, 24k tbn, 47.95 tbc (default) Metadata: handler_name : ISO Media file produced by Google Inc. Stream #0:1(eng): Audio: aac (LC) (mp4a / 0x6134706D), 44100 Hz, stereo, fltp, 127 kb/s (default) Metadata: handler_name : ISO Media file produced by Google Inc. Stream mapping: Stream #0:0 -> #0:0 (h264 (native) -> mpeg2video (native)) Stream #0:1 -> #0:1 (aac (native) -> ac3 (native)) Press [q] to stop, [?] for help Output #0, dvd, to 'D:\dvd-cache\entry001.vob’: Metadata: major_brand : isom minor_version : 512 compatible_brands: isomiso2avc1mp41 encoder : Lavf58.20.100 Stream #0:0(und): Video: mpeg2video (Main), yuv420p, 720x480 [SAR 32:27 DAR 16:9], q=2–31, 8000 kb/s, 23.98 fps, 90k tbn, 23.98 tbc (default) Metadata: handler_name : ISO Media file produced by Google Inc. encoder : Lavc58.35.100 mpeg2video Side data: cpb: bitrate max/min/avg: 8000000/8000000/8000000 buffer size: 1835008 vbv_delay: -1 Stream #0:1(eng): Audio: ac3, 48000 Hz, stereo, fltp, 192 kb/s (default) Metadata: handler_name : ISO Media file produced by Google Inc. encoder : Lavc58.35.100 ac3 frame= 124 fps= 91 q=2.0 size= 5160kB time=00:00:05.43 bitrate=7778.0kbits/s speed=3.97x
video:190116kB audio:4566kB subtitle:0kB other streams:0kB global headers:0kB muxing overhead: 1.749677%

Transcode video 2 of 6 Add file to cache:D:\dvd-cache\entry002.vob Transcodage du fichier vidéo : C:\Users\Corentin\Downloads\AnthonyKavanagh-_Je_suis_ton_meilleur_ami_De_AladdinAudio_Only.mp4 Need encode: true, use mplex: false

Executing command: ffmpeg-vbr.bat -fflags +genpts -threads 8 -i "C:\Users\Corentin\Downloads\AnthonyKavanagh-_Je_suis_ton_meilleur_ami_De_AladdinAudio_Only.mp4" -f dvd -c:v:0 mpeg2video -aspect 16:9 -s 720x480 -r 24000/1001 -g 18 -pix_fmt yuv420p -b:v:0 8000000 -maxrate:v:0 8000000 -minrate:v:0 8000000 -bufsize:v:0 1835008 -packetsize 2048 -muxrate 10080000 -b:a 192000 -ar 48000 -c:a:0 ac3 -map 0:V -map 0:a -map -0:s "D:\dvd-cache\entry002.vob"

FFMpeg-VBR Plugin Settings:

VBR Threshold: 7000 kbps 2-Pass Threshold: 4500 kbps HQ Threshold: 4500 kbps Extreme HQ Threshold: 0 kbps Medium Bitrate Threshold: 7000 kbps

Low Bitrate Threshold: 3500 kbps

<24/03/2020 17:54:22,28> File Name: C:\Users\Corentin\Downloads\AnthonyKavanagh-_Je_suis_ton_meilleur_ami_De_AladdinAudio_Only.mp4 Encoding Mode: CBR HQ: NO Custom Quant Matrix: Fox New

Executing command generated by the ffmpeg-VBR plugin: ffmpeg.exe -fflags +genpts -threads 8 -i "C:\Users\Corentin\Downloads\AnthonyKavanagh-_Je_suis_ton_meilleur_ami_De_AladdinAudio_Only.mp4" -f dvd -c:v:0 mpeg2video -dc 10 -intra_matrix "8,8,9,9,10,10,11,11,8,9,9,10,10,11,11,12,9,9,10,10,11,11,12,12,9,10,10,11,11,12,13,13,10,10,11,11,12,13,13,14,10,11,11,12,13,13,14,15,11,11,12,13,13,14,15,15,11,12,12,13,14,15,15,16" -inter_matrix "8,8,9,9,10,10,11,11,8,9,9,10,10,11,11,12,9,9,10,10,11,11,12,12,9,10,10,11,11,12,13,13,10,10,11,11,12,13,13,14,10,11,11,12,13,13,14,15,11,11,12,13,13,14,15,15,11,12,12,13,14,15,15,16" -aspect 16:9 -s 720x480 -r 24000/1001 -g 18 -pix_fmt yuv420p -b:v:0 8000000 -maxrate:v:0 8000000 -minrate:v:0 8000000 -bufsize:v:0 1835008 -packetsize 2048 -muxrate 10080000 -b:a 192000 -ar 48000 -c:a:0 ac3 -map 0:V -map 0:a -map -0:s "D:\dvd-cache\entry002.vob"

ffmpeg version 4.1.1 Copyright © 2000–2019 the FFmpeg developers built with gcc 8.2.1 (GCC) 20190212 libavutil 56. 22.100 / 56. 22.100 libavcodec 58. 35.100 / 58. 35.100 libavformat 58. 20.100 / 58. 20.100 libavdevice 58. 5.100 / 58. 5.100 libavfilter 7. 40.101 / 7. 40.101 libswscale 5. 3.100 / 5. 3.100 libswresample 3. 3.100 / 3. 3.100 libpostproc 55. 3.100 / 55. 3.100 Input #0, mov,mp4,m4a,3gp,3g2,mj2, from 'C:\Users\Corentin\Downloads\AnthonyKavanagh-_Je_suis_ton_meilleur_ami_De_AladdinAudio_Only.mp4’: Metadata: major_brand : isom minor_version : 512 compatible_brands: isomiso2avc1mp41 encoder : Lavf58.20.100 Duration: 00:02:37.01, start: 0.000000, bitrate: 231 kb/s Stream #0:0(und): Video: h264 (Main) (avc1 / 0x31637661), yuv420p(tv, bt709), 1280x720 [SAR 1:1 DAR 16:9], 98 kb/s, 23.98 fps, 23.98 tbr, 24k tbn, 47.95 tbc (default) Metadata: handler_name : ISO Media file produced by Google Inc. Stream #0:1(eng): Audio: aac (LC) (mp4a / 0x6134706D), 44100 Hz, stereo, fltp, 127 kb/s (default) Metadata: handler_name : ISO Media file produced by Google Inc. Stream mapping: Stream #0:0 -> #0:0 (h264 (native) -> mpeg2video (native)) Stream #0:1 -> #0:1 (aac (native) -> ac3 (native)) Press [q] to stop, [?] for help Output #0, dvd, to 'D:\dvd-cache\entry002.vob’: Metadata: major_brand : isom minor_version : 512 compatible_brands: isomiso2avc1mp41 encoder : Lavf58.20.100 Stream #0:0(und): Video: mpeg2video (Main), yuv420p, 720x480 [SAR 32:27 DAR 16:9], q=2–31, 8000 kb/s, 23.98 fps, 90k tbn, 23.98 tbc (default) Metadata: handler_name : ISO Media file produced by Google Inc. encoder : Lavc58.35.100 mpeg2video Side data: cpb: bitrate max/min/avg: 8000000/8000000/8000000 buffer size: 1835008 vbv_delay: -1 Stream #0:1(eng): Audio: ac3, 48000 Hz, stereo, fltp, 192 kb/s (default) Metadata: handler_name : ISO Media file produced by Google Inc. encoder : Lavc58.35.100 ac3 frame= 99 fps= 77 q=2.0 size= 4098kB time=00:00:04.37 bitrate=7666.9kbits/s speed=3.42x
video:153214kB audio:3680kB subtitle:0kB other streams:0kB global headers:0kB muxing overhead: 1.750276%

Transcode video 3 of 6 Add file to cache:D:\dvd-cache\entry003.vob Transcodage du fichier vidéo : C:\Users\Corentin\Downloads\Aladdin2019-_ExtraitPrince_Ali_VFDisney_hd.mp4 Need encode: true, use mplex: false

Executing command: ffmpeg-vbr.bat -fflags +genpts -threads 8 -i "C:\Users\Corentin\Downloads\Aladdin2019-_ExtraitPrince_Ali_VFDisney_hd.mp4" -f dvd -c:v:0 mpeg2video -aspect 16:9 -s 720x480 -r 30000/1001 -g 18 -pix_fmt yuv420p -b:v:0 8000000 -maxrate:v:0 8000000 -minrate:v:0 8000000 -bufsize:v:0 1835008 -packetsize 2048 -muxrate 10080000 -b:a 192000 -ar 48000 -c:a:0 ac3 -map 0:V -map 0:a -map -0:s "D:\dvd-cache\entry003.vob"

FFMpeg-VBR Plugin Settings:

VBR Threshold: 7000 kbps 2-Pass Threshold: 4500 kbps HQ Threshold: 4500 kbps Extreme HQ Threshold: 0 kbps Medium Bitrate Threshold: 7000 kbps

Low Bitrate Threshold: 3500 kbps

<24/03/2020 17:56:19,44> File Name: C:\Users\Corentin\Downloads\Aladdin2019-_ExtraitPrince_Ali_VFDisney_hd.mp4 Encoding Mode: CBR HQ: NO Custom Quant Matrix: Fox New

Executing command generated by the ffmpeg-VBR plugin: ffmpeg.exe -fflags +genpts -threads 8 -i "C:\Users\Corentin\Downloads\Aladdin2019-_ExtraitPrince_Ali_VFDisney_hd.mp4" -f dvd -c:v:0 mpeg2video -dc 10 -intra_matrix "8,8,9,9,10,10,11,11,8,9,9,10,10,11,11,12,9,9,10,10,11,11,12,12,9,10,10,11,11,12,13,13,10,10,11,11,12,13,13,14,10,11,11,12,13,13,14,15,11,11,12,13,13,14,15,15,11,12,12,13,14,15,15,16" -inter_matrix "8,8,9,9,10,10,11,11,8,9,9,10,10,11,11,12,9,9,10,10,11,11,12,12,9,10,10,11,11,12,13,13,10,10,11,11,12,13,13,14,10,11,11,12,13,13,14,15,11,11,12,13,13,14,15,15,11,12,12,13,14,15,15,16" -aspect 16:9 -s 720x480 -r 30000/1001 -g 18 -pix_fmt yuv420p -b:v:0 8000000 -maxrate:v:0 8000000 -minrate:v:0 8000000 -bufsize:v:0 1835008 -packetsize 2048 -muxrate 10080000 -b:a 192000 -ar 48000 -c:a:0 ac3 -map 0:V -map 0:a -map -0:s "D:\dvd-cache\entry003.vob"

ffmpeg version 4.1.1 Copyright © 2000–2019 the FFmpeg developers built with gcc 8.2.1 (GCC) 20190212 libavutil 56. 22.100 / 56. 22.100 libavcodec 58. 35.100 / 58. 35.100 libavformat 58. 20.100 / 58. 20.100 libavdevice 58. 5.100 / 58. 5.100 libavfilter 7. 40.101 / 7. 40.101 libswscale 5. 3.100 / 5. 3.100 libswresample 3. 3.100 / 3. 3.100 libpostproc 55. 3.100 / 55. 3.100 Input #0, mov,mp4,m4a,3gp,3g2,mj2, from 'C:\Users\Corentin\Downloads\Aladdin2019-_ExtraitPrince_Ali_VFDisney_hd.mp4’: Metadata: major_brand : isom minor_version : 512 compatible_brands: isomiso2avc1mp41 encoder : Lavf58.20.100 Duration: 00:01:00.30, start: 0.000000, bitrate: 4149 kb/s Stream #0:0(und): Video: h264 (High) (avc1 / 0x31637661), yuv420p(tv, bt709), 1920x1080 [SAR 1:1 DAR 16:9], 4018 kb/s, 25 fps, 25 tbr, 12800 tbn, 50 tbc (default) Metadata: handler_name : ISO Media file produced by Google Inc. Created on: 05/22/2019. Stream #0:1(eng): Audio: aac (LC) (mp4a / 0x6134706D), 44100 Hz, stereo, fltp, 127 kb/s (default) Metadata: handler_name : ISO Media file produced by Google Inc. Created on: 05/22/2019. Stream mapping: Stream #0:0 -> #0:0 (h264 (native) -> mpeg2video (native)) Stream #0:1 -> #0:1 (aac (native) -> ac3 (native)) Press [q] to stop, [?] for help Output #0, dvd, to 'D:\dvd-cache\entry003.vob’: Metadata: major_brand : isom minor_version : 512 compatible_brands: isomiso2avc1mp41 encoder : Lavf58.20.100 Stream #0:0(und): Video: mpeg2video (Main), yuv420p, 720x480 [SAR 32:27 DAR 16:9], q=2–31, 8000 kb/s, 29.97 fps, 90k tbn, 29.97 tbc (default) Metadata: handler_name : ISO Media file produced by Google Inc. Created on: 05/22/2019. encoder : Lavc58.35.100 mpeg2video Side data: cpb: bitrate max/min/avg: 8000000/8000000/8000000 buffer size: 1835008 vbv_delay: -1 Stream #0:1(eng): Audio: ac3, 48000 Hz, stereo, fltp, 192 kb/s (default) Metadata: handler_name : ISO Media file produced by Google Inc. Created on: 05/22/2019. encoder : Lavc58.35.100 ac3 frame= 114 fps=0.0 q=5.4 size= 3896kB time=00:00:04.02 bitrate=7926.2kbits/s dup=19 drop=0 speed=7.99x
video:58759kB audio:1414kB subtitle:0kB other streams:0kB global headers:0kB muxing overhead: 1.723458%

Transcode video 4 of 6 Add file to cache:D:\dvd-cache\entry004.vob Transcodage du fichier vidéo : C:\Users\Corentin\Downloads\aladdin-2019-je-vole.mp4 Need encode: true, use mplex: false

Executing command: ffmpeg-vbr.bat -fflags +genpts -threads 8 -i "C:\Users\Corentin\Downloads\aladdin-2019-je-vole.mp4" -f dvd -c:v:0 mpeg2video -aspect 16:9 -s 720x480 -r 24000/1001 -g 18 -pix_fmt yuv420p -b:v:0 8000000 -maxrate:v:0 8000000 -minrate:v:0 8000000 -bufsize:v:0 1835008 -packetsize 2048 -muxrate 10080000 -vf scale=720:360,pad=720:480:0:60 -b:a 192000 -ar 48000 -c:a:0 ac3 -map 0:V -map 0:a -map -0:s "D:\dvd-cache\entry004.vob"

FFMpeg-VBR Plugin Settings:

VBR Threshold: 7000 kbps 2-Pass Threshold: 4500 kbps HQ Threshold: 4500 kbps Extreme HQ Threshold: 0 kbps Medium Bitrate Threshold: 7000 kbps

Low Bitrate Threshold: 3500 kbps

<24/03/2020 17:57:02,73> File Name: C:\Users\Corentin\Downloads\aladdin-2019-je-vole.mp4 Encoding Mode: CBR HQ: NO Custom Quant Matrix: Fox New

Executing command generated by the ffmpeg-VBR plugin: ffmpeg.exe -fflags +genpts -threads 8 -i "C:\Users\Corentin\Downloads\aladdin-2019-je-vole.mp4" -f dvd -c:v:0 mpeg2video -dc 10 -intra_matrix "8,8,9,9,10,10,11,11,8,9,9,10,10,11,11,12,9,9,10,10,11,11,12,12,9,10,10,11,11,12,13,13,10,10,11,11,12,13,13,14,10,11,11,12,13,13,14,15,11,11,12,13,13,14,15,15,11,12,12,13,14,15,15,16" -inter_matrix "8,8,9,9,10,10,11,11,8,9,9,10,10,11,11,12,9,9,10,10,11,11,12,12,9,10,10,11,11,12,13,13,10,10,11,11,12,13,13,14,10,11,11,12,13,13,14,15,11,11,12,13,13,14,15,15,11,12,12,13,14,15,15,16" -aspect 16:9 -s 720x480 -r 24000/1001 -g 18 -pix_fmt yuv420p -b:v:0 8000000 -maxrate:v:0 8000000 -minrate:v:0 8000000 -bufsize:v:0 1835008 -packetsize 2048 -muxrate 10080000 -vf scale=720:360,pad=720:480:0:60 -b:a 192000 -ar 48000 -c:a:0 ac3 -map 0:V -map 0:a -map -0:s "D:\dvd-cache\entry004.vob"

ffmpeg version 4.1.1 Copyright © 2000–2019 the FFmpeg developers built with gcc 8.2.1 (GCC) 20190212 libavutil 56. 22.100 / 56. 22.100 libavcodec 58. 35.100 / 58. 35.100 libavformat 58. 20.100 / 58. 20.100 libavdevice 58. 5.100 / 58. 5.100 libavfilter 7. 40.101 / 7. 40.101 libswscale 5. 3.100 / 5. 3.100 libswresample 3. 3.100 / 3. 3.100 libpostproc 55. 3.100 / 55. 3.100 Input #0, mov,mp4,m4a,3gp,3g2,mj2, from 'C:\Users\Corentin\Downloads\aladdin-2019-je-vole.mp4’: Metadata: major_brand : isom minor_version : 512 compatible_brands: isomiso2avc1mp41 title : Aladdin (2019) - Je Vole artist : Clment GABIER date : 20190928 encoder : Lavf57.56.101 comment : Chanson "Je Vole" interprte par Aladdin, les gardes et les habitants d’Agrabah dans le remake de Aladdin. description : Chanson "Je Vole" interprte par Aladdin, les gardes et les habitants d’Agrabah dans le remake de Aladdin. Duration: 00:03:14.21, start: 0.000000, bitrate: 3298 kb/s Stream #0:0(und): Video: h264 (High) (avc1 / 0x31637661), yuv420p(tv, bt709), 1920x808 [SAR 1:1 DAR 240:101], 3165 kb/s, 23.98 fps, 23.98 tbr, 24k tbn, 47.95 tbc (default) Metadata: handler_name : VideoHandler Stream #0:1(eng): Audio: aac (LC) (mp4a / 0x6134706D), 44100 Hz, stereo, fltp, 128 kb/s (default) Metadata: handler_name : SoundHandler Stream mapping: Stream #0:0 -> #0:0 (h264 (native) -> mpeg2video (native)) Stream #0:1 -> #0:1 (aac (native) -> ac3 (native)) Press [q] to stop, [?] for help Output #0, dvd, to 'D:\dvd-cache\entry004.vob’: Metadata: major_brand : isom minor_version : 512 compatible_brands: isomiso2avc1mp41 title : Aladdin (2019) - Je Vole artist : Clment GABIER date : 20190928 description : Chanson "Je Vole" interprte par Aladdin, les gardes et les habitants d’Agrabah dans le remake de Aladdin. comment : Chanson "Je Vole" interprte par Aladdin, les gardes et les habitants d’Agrabah dans le remake de Aladdin. encoder : Lavf58.20.100 Stream #0:0(und): Video: mpeg2video (Main), yuv420p, 720x480 [SAR 32:27 DAR 16:9], q=2–31, 8000 kb/s, 23.98 fps, 90k tbn, 23.98 tbc (default) Metadata: handler_name : VideoHandler encoder : Lavc58.35.100 mpeg2video Side data: cpb: bitrate max/min/avg: 8000000/8000000/8000000 buffer size: 1835008 vbv_delay: -1 Stream #0:1(eng): Audio: ac3, 48000 Hz, stereo, fltp, 192 kb/s (default) Metadata: handler_name : SoundHandler encoder : Lavc58.35.100 ac3 frame= 117 fps=0.0 q=2.0 size= 4804kB time=00:00:05.14 bitrate=7646.6kbits/s speed=10.3x
video:189545kB audio:4552kB subtitle:0kB other streams:0kB global headers:0kB muxing overhead: 1.667215%

Transcode video 5 of 6 Add file to cache:D:\dvd-cache\entry005.vob Transcodage du fichier vidéo : C:\Users\Corentin\Downloads\Aladdin2019-_ExtraitCe_Reve_Bleu_VFDisney_hd.mp4 Need encode: true, use mplex: false

Executing command: ffmpeg-vbr.bat -fflags +genpts -threads 8 -i "C:\Users\Corentin\Downloads\Aladdin2019-_ExtraitCe_Reve_Bleu_VFDisney_hd.mp4" -f dvd -c:v:0 mpeg2video -aspect 16:9 -s 720x480 -r 30000/1001 -g 18 -pix_fmt yuv420p -b:v:0 8000000 -maxrate:v:0 8000000 -minrate:v:0 8000000 -bufsize:v:0 1835008 -packetsize 2048 -muxrate 10080000 -b:a 192000 -ar 48000 -c:a:0 ac3 -map 0:V -map 0:a -map -0:s "D:\dvd-cache\entry005.vob"

FFMpeg-VBR Plugin Settings:

VBR Threshold: 7000 kbps 2-Pass Threshold: 4500 kbps HQ Threshold: 4500 kbps Extreme HQ Threshold: 0 kbps Medium Bitrate Threshold: 7000 kbps

Low Bitrate Threshold: 3500 kbps

<24/03/2020 17:58:51,22> File Name: C:\Users\Corentin\Downloads\Aladdin2019-_ExtraitCe_Reve_Bleu_VFDisney_hd.mp4 Encoding Mode: CBR HQ: NO Custom Quant Matrix: Fox New

Executing command generated by the ffmpeg-VBR plugin: ffmpeg.exe -fflags +genpts -threads 8 -i "C:\Users\Corentin\Downloads\Aladdin2019-_ExtraitCe_Reve_Bleu_VFDisney_hd.mp4" -f dvd -c:v:0 mpeg2video -dc 10 -intra_matrix "8,8,9,9,10,10,11,11,8,9,9,10,10,11,11,12,9,9,10,10,11,11,12,12,9,10,10,11,11,12,13,13,10,10,11,11,12,13,13,14,10,11,11,12,13,13,14,15,11,11,12,13,13,14,15,15,11,12,12,13,14,15,15,16" -inter_matrix "8,8,9,9,10,10,11,11,8,9,9,10,10,11,11,12,9,9,10,10,11,11,12,12,9,10,10,11,11,12,13,13,10,10,11,11,12,13,13,14,10,11,11,12,13,13,14,15,11,11,12,13,13,14,15,15,11,12,12,13,14,15,15,16" -aspect 16:9 -s 720x480 -r 30000/1001 -g 18 -pix_fmt yuv420p -b:v:0 8000000 -maxrate:v:0 8000000 -minrate:v:0 8000000 -bufsize:v:0 1835008 -packetsize 2048 -muxrate 10080000 -b:a 192000 -ar 48000 -c:a:0 ac3 -map 0:V -map 0:a -map -0:s "D:\dvd-cache\entry005.vob"

ffmpeg version 4.1.1 Copyright © 2000–2019 the FFmpeg developers built with gcc 8.2.1 (GCC) 20190212 libavutil 56. 22.100 / 56. 22.100 libavcodec 58. 35.100 / 58. 35.100 libavformat 58. 20.100 / 58. 20.100 libavdevice 58. 5.100 / 58. 5.100 libavfilter 7. 40.101 / 7. 40.101 libswscale 5. 3.100 / 5. 3.100 libswresample 3. 3.100 / 3. 3.100 libpostproc 55. 3.100 / 55. 3.100 Input #0, mov,mp4,m4a,3gp,3g2,mj2, from 'C:\Users\Corentin\Downloads\Aladdin2019-_ExtraitCe_Reve_Bleu_VFDisney_hd.mp4’: Metadata: major_brand : isom minor_version : 512 compatible_brands: isomiso2avc1mp41 encoder : Lavf58.20.100 Duration: 00:01:12.31, start: 0.000000, bitrate: 1194 kb/s Stream #0:0(und): Video: h264 (High) (avc1 / 0x31637661), yuv420p(tv, bt709), 1920x1080 [SAR 1:1 DAR 16:9], 1060 kb/s, 25 fps, 25 tbr, 12800 tbn, 50 tbc (default) Metadata: handler_name : ISO Media file produced by Google Inc. Created on: 05/29/2019. Stream #0:1(eng): Audio: aac (LC) (mp4a / 0x6134706D), 44100 Hz, stereo, fltp, 127 kb/s (default) Metadata: handler_name : ISO Media file produced by Google Inc. Created on: 05/29/2019. Stream mapping: Stream #0:0 -> #0:0 (h264 (native) -> mpeg2video (native)) Stream #0:1 -> #0:1 (aac (native) -> ac3 (native)) Press [q] to stop, [?] for help Output #0, dvd, to 'D:\dvd-cache\entry005.vob’: Metadata: major_brand : isom minor_version : 512 compatible_brands: isomiso2avc1mp41 encoder : Lavf58.20.100 Stream #0:0(und): Video: mpeg2video (Main), yuv420p, 720x480 [SAR 32:27 DAR 16:9], q=2–31, 8000 kb/s, 29.97 fps, 90k tbn, 29.97 tbc (default) Metadata: handler_name : ISO Media file produced by Google Inc. Created on: 05/29/2019. encoder : Lavc58.35.100 mpeg2video Side data: cpb: bitrate max/min/avg: 8000000/8000000/8000000 buffer size: 1835008 vbv_delay: -1 Stream #0:1(eng): Audio: ac3, 48000 Hz, stereo, fltp, 192 kb/s (default) Metadata: handler_name : ISO Media file produced by Google Inc. Created on: 05/29/2019. encoder : Lavc58.35.100 ac3 frame= 120 fps=0.0 q=2.0 size= 3954kB time=00:00:04.25 bitrate=7620.3kbits/s dup=20 drop=0 speed=8.44x
video:70490kB audio:1695kB subtitle:0kB other streams:0kB global headers:0kB muxing overhead: 1.636569%

Transcode video 6 of 6 Add file to cache:D:\dvd-cache\entry006.vob Transcodage du fichier vidéo : C:\Users\Corentin\Downloads\HibaTawaji-_Parler_2eme_partie_De_AladdinAudio_Only.mp4 Need encode: true, use mplex: false

Executing command: ffmpeg-vbr.bat -fflags +genpts -threads 8 -i "C:\Users\Corentin\Downloads\HibaTawaji-_Parler_2eme_partie_De_AladdinAudio_Only.mp4" -f dvd -c:v:0 mpeg2video -aspect 16:9 -s 720x480 -r 24000/1001 -g 18 -pix_fmt yuv420p -b:v:0 8000000 -maxrate:v:0 8000000 -minrate:v:0 8000000 -bufsize:v:0 1835008 -packetsize 2048 -muxrate 10080000 -b:a 192000 -ar 48000 -c:a:0 ac3 -map 0:V -map 0:a -map -0:s "D:\dvd-cache\entry006.vob"

FFMpeg-VBR Plugin Settings:

VBR Threshold: 7000 kbps 2-Pass Threshold: 4500 kbps HQ Threshold: 4500 kbps Extreme HQ Threshold: 0 kbps Medium Bitrate Threshold: 7000 kbps

Low Bitrate Threshold: 3500 kbps

<24/03/2020 17:59:44,78> File Name: C:\Users\Corentin\Downloads\HibaTawaji-_Parler_2eme_partie_De_AladdinAudio_Only.mp4 Encoding Mode: CBR HQ: NO Custom Quant Matrix: Fox New

Executing command generated by the ffmpeg-VBR plugin: ffmpeg.exe -fflags +genpts -threads 8 -i "C:\Users\Corentin\Downloads\HibaTawaji-_Parler_2eme_partie_De_AladdinAudio_Only.mp4" -f dvd -c:v:0 mpeg2video -dc 10 -intra_matrix "8,8,9,9,10,10,11,11,8,9,9,10,10,11,11,12,9,9,10,10,11,11,12,12,9,10,10,11,11,12,13,13,10,10,11,11,12,13,13,14,10,11,11,12,13,13,14,15,11,11,12,13,13,14,15,15,11,12,12,13,14,15,15,16" -inter_matrix "8,8,9,9,10,10,11,11,8,9,9,10,10,11,11,12,9,9,10,10,11,11,12,12,9,10,10,11,11,12,13,13,10,10,11,11,12,13,13,14,10,11,11,12,13,13,14,15,11,11,12,13,13,14,15,15,11,12,12,13,14,15,15,16" -aspect 16:9 -s 720x480 -r 24000/1001 -g 18 -pix_fmt yuv420p -b:v:0 8000000 -maxrate:v:0 8000000 -minrate:v:0 8000000 -bufsize:v:0 1835008 -packetsize 2048 -muxrate 10080000 -b:a 192000 -ar 48000 -c:a:0 ac3 -map 0:V -map 0:a -map -0:s "D:\dvd-cache\entry006.vob"

ffmpeg version 4.1.1 Copyright © 2000–2019 the FFmpeg developers built with gcc 8.2.1 (GCC) 20190212 libavutil 56. 22.100 / 56. 22.100 libavcodec 58. 35.100 / 58. 35.100 libavformat 58. 20.100 / 58. 20.100 libavdevice 58. 5.100 / 58. 5.100 libavfilter 7. 40.101 / 7. 40.101 libswscale 5. 3.100 / 5. 3.100 libswresample 3. 3.100 / 3. 3.100 libpostproc 55. 3.100 / 55. 3.100 Input #0, mov,mp4,m4a,3gp,3g2,mj2, from 'C:\Users\Corentin\Downloads\HibaTawaji-_Parler_2eme_partie_De_AladdinAudio_Only.mp4’: Metadata: major_brand : isom minor_version : 512 compatible_brands: isomiso2avc1mp41 encoder : Lavf58.20.100 Duration: 00:02:24.85, start: 0.000000, bitrate: 239 kb/s Stream #0:0(und): Video: h264 (Main) (avc1 / 0x31637661), yuv420p(tv, bt709), 1280x720 [SAR 1:1 DAR 16:9], 105 kb/s, 23.98 fps, 23.98 tbr, 24k tbn, 47.95 tbc (default) Metadata: handler_name : ISO Media file produced by Google Inc. Created on: 05/22/2019. Stream #0:1(eng): Audio: aac (LC) (mp4a / 0x6134706D), 44100 Hz, stereo, fltp, 127 kb/s (default) Metadata: handler_name : ISO Media file produced by Google Inc. Created on: 05/22/2019. Stream mapping: Stream #0:0 -> #0:0 (h264 (native) -> mpeg2video (native)) Stream #0:1 -> #0:1 (aac (native) -> ac3 (native)) Press [q] to stop, [?] for help Output #0, dvd, to 'D:\dvd-cache\entry006.vob’: Metadata: major_brand : isom minor_version : 512 compatible_brands: isomiso2avc1mp41 encoder : Lavf58.20.100 Stream #0:0(und): Video: mpeg2video (Main), yuv420p, 720x480 [SAR 32:27 DAR 16:9], q=2–31, 8000 kb/s, 23.98 fps, 90k tbn, 23.98 tbc (default) Metadata: handler_name : ISO Media file produced by Google Inc. Created on: 05/22/2019. encoder : Lavc58.35.100 mpeg2video Side data: cpb: bitrate max/min/avg: 8000000/8000000/8000000 buffer size: 1835008 vbv_delay: -1 Stream #0:1(eng): Audio: ac3, 48000 Hz, stereo, fltp, 192 kb/s (default) Metadata: handler_name : ISO Media file produced by Google Inc. Created on: 05/22/2019. encoder : Lavc58.35.100 ac3 frame= 124 fps=0.0 q=2.0 size= 5160kB time=00:00:05.43 bitrate=7778.0kbits/s speed=8.95x
video:141320kB audio:3395kB subtitle:0kB other streams:0kB global headers:0kB muxing overhead: 1.748565%

========================= | Result size VMGM menu 1 | 0.2 MB VMGM menu 2 | 0.1 MB VMGM menu 3 | 0.1 MB Title 1 | 193.4 MB Title 2 | 155.9 MB Title 3 | 59.8 MB Title 4 | 192.7 MB Title 5 | 71.6 MB Title 6 | 143.8 MB

Total | 817.7 MB

Génération du DVD Executing command: dvdauthor -o "D:\dvd-out" -x "D:\dvd-tmp\dvdauthor.xml" DVDAuthor::dvdauthor, version 0.7.1. Build options: gnugetopt iconv freetype fribidi fontconfig Send bug reports to dvdauthor-users@lists.sourceforge.net INFO: no default video format, must explicitly specify NTSC or PAL INFO: dvdauthor creating VTS STAT: Picking VTS 01 STAT: Processing C:\Program Files\DVDStyler\data\empty_ntsc_ac3.mpg… INFO: Video pts = 0.178 .. 6.417 INFO: Audio[0] pts = 0.178 .. 6.194 STAT: VOBU 11 at 0MB, 1 PGCs CHAPTERS: VTS[1/1] 0.000 INFO: Generating VTSM with the following video attributes: INFO: MPEG version: mpeg2 INFO: TV standard: ntsc INFO: Aspect ratio: 4:3 INFO: Resolution: 720x480 INFO: Audio ch 0 format: ac3/2ch, 48khz drc, 'fr' STAT: Processing D:\dvd-cache\entry001.vob… WARN: not a valid DVD frame rate: 0x01 WARN: attempt to update frame rate from 30000.0/1001.0 (NTSC VIDEO) to 24000.0/1001.0 (NTSC 3:2 pulldown converted FILM); skipping STAT: VOBU 16 at 10MB, 6 PGCs STAT: VOBU 32 at 22MB, 6 PGCs STAT: VOBU 48 at 34MB, 6 PGCs STAT: VOBU 64 at 46MB, 6 PGCs STAT: VOBU 80 at 58MB, 6 PGCs STAT: VOBU 96 at 70MB, 6 PGCs STAT: VOBU 112 at 82MB, 6 PGCs STAT: VOBU 128 at 94MB, 6 PGCs STAT: VOBU 144 at 106MB, 6 PGCs STAT: VOBU 160 at 118MB, 6 PGCs STAT: VOBU 176 at 130MB, 6 PGCs STAT: VOBU 192 at 142MB, 6 PGCs STAT: VOBU 208 at 154MB, 6 PGCs STAT: VOBU 224 at 166MB, 6 PGCs STAT: VOBU 240 at 177MB, 6 PGCs STAT: VOBU 256 at 189MB, 6 PGCs INFO: Video pts = 0.541 .. 195.169 INFO: Audio[0] pts = 0.536 .. 195.352 STAT: Processing D:\dvd-cache\entry002.vob… STAT: VOBU 276 at 204MB, 6 PGCs STAT: VOBU 292 at 216MB, 6 PGCs STAT: VOBU 308 at 228MB, 6 PGCs STAT: VOBU 324 at 240MB, 6 PGCs STAT: VOBU 340 at 252MB, 6 PGCs STAT: VOBU 356 at 264MB, 6 PGCs STAT: VOBU 372 at 275MB, 6 PGCs STAT: VOBU 388 at 287MB, 6 PGCs STAT: VOBU 404 at 299MB, 6 PGCs STAT: VOBU 420 at 311MB, 6 PGCs STAT: VOBU 436 at 323MB, 6 PGCs STAT: VOBU 452 at 335MB, 6 PGCs STAT: VOBU 468 at 347MB, 6 PGCs INFO: Video pts = 0.541 .. 157.381 INFO: Audio[0] pts = 0.536 .. 157.560 STAT: Processing D:\dvd-cache\entry003.vob… STAT: VOBU 486 at 358MB, 6 PGCs STAT: VOBU 502 at 367MB, 6 PGCs STAT: VOBU 518 at 377MB, 6 PGCs STAT: VOBU 534 at 386MB, 6 PGCs STAT: VOBU 550 at 396MB, 6 PGCs STAT: VOBU 566 at 406MB, 6 PGCs INFO: Video pts = 0.533 .. 60.760 INFO: Audio[0] pts = 0.528 .. 60.848 STAT: Processing D:\dvd-cache\entry004.vob… STAT: VOBU 587 at 420MB, 6 PGCs STAT: VOBU 603 at 432MB, 6 PGCs STAT: VOBU 619 at 444MB, 6 PGCs STAT: VOBU 635 at 456MB, 6 PGCs STAT: VOBU 651 at 468MB, 6 PGCs STAT: VOBU 667 at 479MB, 6 PGCs STAT: VOBU 683 at 491MB, 6 PGCs STAT: VOBU 699 at 503MB, 6 PGCs STAT: VOBU 715 at 515MB, 6 PGCs STAT: VOBU 731 at 527MB, 6 PGCs STAT: VOBU 747 at 539MB, 6 PGCs STAT: VOBU 763 at 551MB, 6 PGCs STAT: VOBU 779 at 563MB, 6 PGCs STAT: VOBU 795 at 575MB, 6 PGCs STAT: VOBU 811 at 587MB, 6 PGCs STAT: VOBU 827 at 599MB, 6 PGCs INFO: Video pts = 0.541 .. 194.618 INFO: Audio[0] pts = 0.536 .. 194.776 STAT: Processing D:\dvd-cache\entry005.vob… STAT: VOBU 846 at 610MB, 6 PGCs STAT: VOBU 862 at 620MB, 6 PGCs STAT: VOBU 878 at 629MB, 6 PGCs STAT: VOBU 894 at 639MB, 6 PGCs STAT: VOBU 910 at 648MB, 6 PGCs STAT: VOBU 926 at 658MB, 6 PGCs STAT: VOBU 942 at 667MB, 6 PGCs INFO: Video pts = 0.533 .. 72.772 INFO: Audio[0] pts = 0.528 .. 72.848 STAT: Processing D:\dvd-cache\entry006.vob… STAT: VOBU 967 at 684MB, 6 PGCs STAT: VOBU 983 at 696MB, 6 PGCs STAT: VOBU 999 at 708MB, 6 PGCs STAT: VOBU 1015 at 720MB, 6 PGCs STAT: VOBU 1031 at 732MB, 6 PGCs STAT: VOBU 1047 at 744MB, 6 PGCs STAT: VOBU 1063 at 755MB, 6 PGCs STAT: VOBU 1079 at 767MB, 6 PGCs STAT: VOBU 1095 at 779MB, 6 PGCs STAT: VOBU 1111 at 791MB, 6 PGCs STAT: VOBU 1127 at 803MB, 6 PGCs STAT: VOBU 1143 at 815MB, 6 PGCs INFO: Video pts = 0.541 .. 145.202 INFO: Audio[0] pts = 0.536 .. 145.400 STAT: VOBU 1144 at 817MB, 6 PGCs CHAPTERS: VTS[1/1] 0.000 CHAPTERS: VTS[2/1] 0.000 CHAPTERS: VTS[3/1] 0.000 CHAPTERS: VTS[4/1] 0.000 CHAPTERS: VTS[5/1] 0.000 CHAPTERS: VTS[6/1] 0.000 INFO: Generating VTS with the following video attributes: INFO: MPEG version: mpeg2 INFO: TV standard: ntsc INFO: Aspect ratio: 16:9 INFO: Resolution: 720x480 INFO: Audio ch 0 format: ac3/2ch, 48khz drc, 'en' STAT: fixed 11 VOBUs
STAT: fixing VOBU at 10MB (17/1144, 1%) STAT: fixing VOBU at 46MB (65/1144, 5%) STAT: fixing VOBU at 94MB (129/1144, 11%) STAT: fixing VOBU at 130MB (177/1144, 15%) STAT: fixing VOBU at 177MB (241/1144, 20%) STAT: fixing VOBU at 213MB (289/1144, 25%) STAT: fixing VOBU at 261MB (353/1144, 30%) STAT: fixing VOBU at 308MB (417/1144, 36%) STAT: fixing VOBU at 344MB (465/1144, 40%) STAT: fixing VOBU at 383MB (529/1144, 46%) STAT: fixing VOBU at 412MB (577/1144, 50%) STAT: fixing VOBU at 459MB (641/1144, 55%) STAT: fixing VOBU at 495MB (689/1144, 60%) STAT: fixing VOBU at 543MB (753/1144, 65%) STAT: fixing VOBU at 591MB (817/1144, 71%) STAT: fixing VOBU at 621MB (865/1144, 75%) STAT: fixing VOBU at 659MB (929/1144, 81%) STAT: fixing VOBU at 691MB (977/1144, 85%) STAT: fixing VOBU at 738MB (1041/1144, 90%) STAT: fixing VOBU at 774MB (1089/1144, 95%) STAT: fixed 1144 VOBUs
INFO: dvdauthor creating table of contents INFO: Scanning D:\dvd-out/VIDEO_TS/VTS_01_0.IFO INFO: Creating menu for TOC STAT: Processing D:\dvd-tmp\menu0–0.mpg… WARN: Audio pts for channel 0 moves backwards by 10752; please remultiplex input. WARN: Previous sector: 0.537 - 0.793 WARN: Current sector: 0.673 - 0.897 INFO: Video pts = 0.540 .. 0.980 INFO: Audio[0] pts = 0.537 .. 0.897 INFO: Audio[32] pts = 0.540 .. 0.540 STAT: Processing D:\dvd-tmp\menu0–1.mpg… WARN: Audio pts for channel 0 moves backwards by 10752; please remultiplex input. WARN: Previous sector: 0.537 - 0.793 WARN: Current sector: 0.673 - 0.897 INFO: Video pts = 0.540 .. 0.980 INFO: Audio[0] pts = 0.537 .. 0.897 INFO: Audio[32] pts = 0.540 .. 0.540 STAT: Processing D:\dvd-tmp\menu0–2.mpg… WARN: Audio pts for channel 0 moves backwards by 10752; please remultiplex input. WARN: Previous sector: 0.537 - 0.793 WARN: Current sector: 0.673 - 0.897 INFO: Video pts = 0.540 .. 0.980 INFO: Audio[0] pts = 0.537 .. 0.897 INFO: Audio[32] pts = 0.540 .. 0.540 STAT: VOBU 3 at 0MB, 3 PGCs CHAPTERS: VTS[1/1] 0.000 CHAPTERS: VTS[2/1] 0.000 CHAPTERS: VTS[3/1] 0.000 INFO: Generating VMGM with the following video attributes: INFO: MPEG version: mpeg2 INFO: TV standard: pal INFO: Aspect ratio: 4:3 INFO: Resolution: 720x576 INFO: Audio ch 0 format: ac3/2ch, 48khz drc, 'fr' STAT: fixed 3 VOBUs
Formatage du DVD-RW Executing command: dvd+rw-format -force D:

  • BD/DVDñRW/-RAM format utility by appro@fy.chalmers.se, version 7.1.
  • 4.7GB DVD-RW media in Restricted Overwrite mode detected. :-( unable to umount: Accès refusé. Gravure en cours Disc size: 0 MB ISO Size: 818 MB Executing command: growisofs -V "Aladdin" -dvd-compat -Z D: -dvd-video "D:\dvd-out" Executing 'C:\Program Files\DVDStyler\bin\mkisofs.exe -V Aladdin -dvd-video D:\dvd-out | builtin_dd of=\.\D: obs=32k seek=0' 1.19% done, estimate finish Tue Mar 24 18:24:06 2020 :-( unable to umount D:: Accès refusé. mkisofs: Broken pipe. cannot fwrite 32768*1 Échec

Voilà !

Je vais aussi faire ce que vous m’avez recommander et utiliser un logiciel de gravure.

Merci de votre aide précieuse en espérant que votre suggestion fonctionne ! :D

Édité par nathan.corneville

+0 -0
Connectez-vous pour pouvoir poster un message.
Connexion

Pas encore membre ?

Créez un compte en une minute pour profiter pleinement de toutes les fonctionnalités de Zeste de Savoir. Ici, tout est gratuit et sans publicité.
Créer un compte